<?xml version="1.0" standalone="no"?>
<!DOCTYPE svg PUBLIC "-//W3C//DTD SVG 1.1//EN" "http://www.w3.org/Graphics/SVG/1.1/DTD/svg11.dtd" >
<svg xmlns="http://www.w3.org/2000/svg" xmlns:xlink="http://www.w3.org/1999/xlink" version="1.1">
<metadata></metadata>
<defs>
<font id="webfontuploaded_file" horiz-adv-x="1134" >
<font-face units-per-em="2048" ascent="1638" descent="-410" />
<missing-glyph horiz-adv-x="477" />
<glyph unicode="&#xfb01;" horiz-adv-x="1224" d="M66 0v37q31 0 55 3t42.5 15.5t29 35t10.5 63.5v653h-133v49h133v123q0 193 100 308.5t309 115.5q39 0 91.5 -6t99.5 -24.5t79.5 -49.5t32.5 -80q0 -35 -22.5 -52t-50.5 -17q-25 0 -45.5 15t-30.5 42q-10 31 -9 45t-1 18q-14 29 -47 46.5t-86 17.5q-74 0 -114 -31 t-58.5 -81t-21.5 -113.5t-3 -131.5v-145h256q37 0 83 3t92 10.5t92 17.5t83 24v-757q0 -41 10.5 -63.5t29 -35t43 -15.5t54.5 -3v-37q-49 0 -83.5 1t-60.5 2t-49.5 2t-49.5 1q-29 0 -53.5 -1t-53 -2t-63.5 -2t-84 -1v37q31 0 55.5 3t42.5 15.5t28.5 35t10.5 63.5v536 q-2 70 -31.5 93.5t-79.5 23.5h-272v-653q0 -41 10 -63.5t28.5 -35t43 -15.5t55.5 -3v-37q-100 0 -159.5 3t-114.5 3q-29 0 -48.5 -1t-42 -2t-53 -2t-79.5 -1z" />
<glyph unicode="&#xfb02;" horiz-adv-x="1230" d="M66 0v37q31 0 55 3t42.5 15.5t29 35t10.5 63.5v653h-137v49h137v123q0 193 109.5 308.5t314.5 115.5q59 0 101 -11.5t79 -27.5q53 6 112.5 14t112.5 19v-1243q0 -41 10.5 -63.5t29 -35t43 -15.5t54.5 -3v-37q-49 0 -82.5 1t-60.5 2t-49.5 2t-48.5 1q-29 0 -53.5 -1 t-53 -2t-64.5 -2t-85 -1v37q31 0 55.5 3t42.5 15.5t28.5 35t10.5 63.5v1046q0 72 -47 114t-119 42q-74 0 -117 -30t-65.5 -79t-28.5 -112.5t-6 -130.5v-148h201v-49h-201v-653q0 -41 10 -63.5t28.5 -35t43 -15.5t55.5 -3v-37q-100 0 -159.5 3t-114.5 3q-29 0 -48.5 -1 t-42 -2t-53 -2t-79.5 -1z" />
<glyph unicode="&#xfb03;" horiz-adv-x="1839" d="M66 0v37q31 0 55 3t42.5 15.5t29 35t10.5 63.5v655h-137v47h137v123q0 193 109.5 308.5t320.5 115.5q68 0 116 -11.5t83.5 -26.5t58 -31.5t39.5 -28.5q45 43 117.5 70.5t189.5 27.5q31 0 80 -6t97 -23.5t82 -49.5t34 -81q0 -29 -20.5 -49t-55.5 -20q-23 0 -43 17t-31 42 q-10 29 -9 45t-1 20q-14 29 -48 46.5t-85 17.5q-76 0 -118 -33t-61.5 -79t-23.5 -97t-4 -90v-207h266q37 0 83 3t92.5 10.5t92.5 17.5t83 24v-757q0 -41 10 -63.5t28.5 -35t43 -15.5t55.5 -3v-37q-49 0 -84 1t-60.5 2t-49 2t-50.5 1q-29 0 -53.5 -1t-53 -2t-63.5 -2t-84 -1 v37q31 0 55.5 3t43 15.5t28.5 35t10 63.5v538q-2 70 -31.5 93.5t-78.5 23.5h-283v-643q0 -45 10.5 -70.5t28.5 -39t43 -16.5t55 -3v-37q-47 0 -77.5 1t-56 2t-48 2t-49.5 1q-29 0 -55.5 -1t-56 -2t-66.5 -2t-86 -1v37q31 0 55.5 3t42.5 15.5t28.5 35t10.5 63.5v655h-383 v-655q0 -41 10 -63.5t28.5 -35t43 -15.5t55.5 -3v-37q-49 0 -85 1t-64.5 2t-53 2t-51.5 1q-29 0 -52.5 -1t-49 -2t-59 -2t-82.5 -1zM426 856h383v123q0 39 6 102.5t33 124.5q-14 8 -24.5 22.5t-17.5 29t-11 25.5t-4 15q-8 31 -51.5 47.5t-96.5 16.5q-74 0 -117 -32 t-65.5 -82t-28.5 -114.5t-6 -132.5v-145z" />
<glyph unicode="&#xfb04;" horiz-adv-x="1845" d="M66 0v37q31 0 55 3t42.5 15.5t29 35t10.5 63.5v655h-137v47h137v123q0 193 109.5 308.5t320.5 115.5q68 0 116 -11.5t83.5 -26.5t58 -31.5t39.5 -28.5q45 43 116.5 70.5t178.5 27.5q72 0 113.5 -11.5t82.5 -27.5q53 6 112.5 14t113.5 19v-1243q0 -41 10 -63.5t28.5 -35 t43 -15.5t55.5 -3v-37q-49 0 -83 1t-60.5 2t-49 2t-49.5 1q-29 0 -53.5 -1t-53 -2t-64.5 -2t-85 -1v37q31 0 55.5 3t43 15.5t28.5 35t10 63.5v1050q0 72 -47 114t-119 42q-74 0 -117.5 -27.5t-67 -73t-31 -103.5t-7.5 -118v-182h207v-47h-207v-655q0 -41 10.5 -63.5t29 -35 t43 -15.5t54.5 -3v-37q-49 0 -86.5 1t-68.5 2t-58.5 2t-54.5 1q-29 0 -49 -1t-44 -2t-55.5 -2t-80.5 -1v37q31 0 55.5 3t43 15.5t28.5 35t10 63.5v655h-385v-655q0 -41 10 -63.5t28.5 -35t43 -15.5t55.5 -3v-37q-100 0 -159.5 3t-114.5 3q-29 0 -48.5 -1t-42 -2t-53 -2 t-79.5 -1zM426 856h385v123q0 55 8 114.5t33 112.5q-14 8 -24.5 22.5t-17.5 29t-11 25.5t-4 15q-8 31 -53.5 47.5t-98.5 16.5q-74 0 -117 -32t-65.5 -82t-28.5 -114.5t-6 -132.5v-145z" />
<glyph horiz-adv-x="0" />
<glyph horiz-adv-x="0" />
<glyph unicode="&#xd;" horiz-adv-x="477" />
<glyph unicode=" "  horiz-adv-x="477" />
<glyph unicode="&#x09;" horiz-adv-x="477" />
<glyph unicode="&#xa0;" horiz-adv-x="477" />
<glyph unicode="!" horiz-adv-x="667" d="M205 1251q0 82 43 118t86 36t86 -36t43 -118q0 -35 -7 -83t-24 -130l-6 -34q-10 -53 -22.5 -114t-22.5 -134.5t-17.5 -162.5t-7.5 -198v-63h-45v63q0 109 -7 198t-17.5 162.5t-22.5 134t-22 114.5l-6 34q-16 82 -23.5 130.5t-7.5 82.5zM209 102q0 53 37 90t86 37 q53 0 90 -36.5t37 -90.5q0 -51 -37 -86.5t-90 -35.5q-49 0 -86 35.5t-37 86.5z" />
<glyph unicode="&#x22;" horiz-adv-x="747" d="M92 1370h217l-71 -549h-74zM436 1370h219l-73 -549h-72z" />
<glyph unicode="#" horiz-adv-x="1116" d="M35 500l12 55h229l64 262h-231l12 55h231l88 379h152l-86 -379h190l90 379h152l-88 -379h231l-12 -55h-231l-62 -262h232l-13 -55h-231l-88 -379h-154l88 379h-192l-88 -379h-154l88 379h-229zM430 555h193l61 262h-190z" />
<glyph unicode="$" horiz-adv-x="1159" d="M184 186q0 57 29 82t68 25q35 0 57 -28.5t22 -63.5q0 -29 -11 -53.5t-11 -30.5q0 -23 18.5 -40.5t47 -28.5t63.5 -16t65 -5h21v573l-41 21q-59 29 -113.5 63.5t-95.5 80.5t-66.5 108.5t-25.5 148.5q0 68 24.5 131.5t69.5 115.5t107.5 86t140.5 40v157h59v-155 q45 0 100.5 -10.5t102.5 -35t79 -64.5t32 -97q0 -53 -27 -78t-65 -25q-35 0 -57.5 26t-22.5 58q0 33 11 56.5t11 32.5q0 41 -46 64.5t-118 25.5v-490q23 -14 44.5 -24.5t43.5 -22.5q66 -39 117 -78t86 -88t53.5 -110.5t18.5 -143.5q0 -72 -24.5 -141.5t-70.5 -126.5 t-114 -96t-154 -49v-281h-59v276h-16q-43 0 -103.5 9.5t-116 33t-94.5 64.5t-39 104zM375 1126q0 -82 50 -134t128 -97v453q-47 -6 -80 -28t-55.5 -52.5t-32.5 -67.5t-10 -74zM612 33q98 27 146.5 95.5t48.5 150.5q0 98 -54.5 168.5t-140.5 119.5v-534z" />
<glyph unicode="%" horiz-adv-x="1787" d="M143 907q0 86 29 172t82 157t128 115t167 44q61 0 102 -17.5t88 -50.5q47 -31 96.5 -53.5t114.5 -22.5q53 0 107.5 17.5t103.5 46t92 65.5t76 74h88l-948 -1597h-98l846 1427q-59 -47 -131 -70.5t-130 -23.5q-39 0 -78.5 6t-84.5 29q14 -45 18 -80t4 -64 q0 -102 -27.5 -192t-76.5 -157.5t-115 -106.5t-141 -39q-55 0 -111.5 19.5t-100.5 59.5t-72 100t-28 142zM330 852q0 -111 40 -157t95 -46q57 0 107.5 43t88 109.5t59 147.5t21.5 155q0 98 -38.5 159.5t-98.5 61.5q-59 0 -109.5 -44t-87 -113.5t-57 -152.5t-20.5 -163z M969 236q0 86 28.5 172t83 156.5t132 114.5t173.5 44q68 0 117 -24.5t80 -66.5t46.5 -97.5t15.5 -118.5q0 -100 -29 -191.5t-78 -160t-115.5 -109.5t-142.5 -41q-57 0 -112.5 19.5t-99.5 59.5t-71.5 100.5t-27.5 142.5zM1155 180q0 -111 40 -157t95 -46q57 0 107.5 44.5 t88.5 112t59.5 147t21.5 151.5q0 98 -39 159.5t-98 61.5t-109.5 -44t-87.5 -113.5t-57.5 -152.5t-20.5 -163z" />
<glyph unicode="&#x26;" horiz-adv-x="1560" d="M84 260q0 133 84 228.5t256 187.5q-6 10 -24.5 45t-38 86t-34 113.5t-14.5 130.5q0 86 27 152.5t72 111.5t101 68.5t118 23.5q125 0 206 -75t81 -199q0 -111 -70 -209.5t-182 -171.5q37 -53 67.5 -94.5t61 -79t63.5 -75.5t74 -83q51 78 93 153.5t87 135t96.5 96.5 t120.5 37q53 0 96 -29t43 -82q0 -45 -26.5 -71.5t-67.5 -26.5q-35 0 -54.5 15.5t-31.5 33.5t-19 33.5t-16 15.5q-37 0 -80 -36t-98 -134q-23 -41 -46 -80t-60 -100q31 -35 80 -86t104 -98t111.5 -82t103.5 -35q37 0 71 19.5t56 54.5l25 -21q-10 -18 -32 -44t-58.5 -50.5 t-87 -41.5t-117.5 -17q-70 0 -126.5 14t-105.5 41.5t-92 65.5t-88 85q-39 -41 -81 -78.5t-91 -66.5t-105.5 -46.5t-123.5 -17.5q-86 0 -147.5 25t-101.5 64.5t-59.5 90t-19.5 103.5zM311 365q0 -53 17.5 -98.5t46 -78t67.5 -51t82 -18.5q80 0 145.5 26.5t108.5 75.5 q-121 125 -201.5 235.5t-127.5 178.5q-20 -14 -45 -35.5t-45.5 -53.5t-34 -76t-13.5 -105zM479 1165q0 -57 18.5 -115.5t44 -109.5t52.5 -90t41 -59q47 43 73.5 92t39 95t14.5 83t2 53q0 49 -9.5 94t-26.5 79t-45 53.5t-65 19.5q-53 0 -96 -47t-43 -148z" />
<glyph unicode="'" horiz-adv-x="403" d="M92 1370h219l-69 -549h-80z" />
<glyph unicode="(" horiz-adv-x="825" d="M205 485q0 225 107.5 462t332.5 450l37 -31q-88 -109 -142.5 -218.5t-84 -221t-39.5 -222t-10 -219.5q0 -111 10 -221t39.5 -221t84 -221.5t142.5 -218.5l-37 -31q-227 215 -333.5 452.5t-106.5 460.5z" />
<glyph unicode=")" horiz-adv-x="825" d="M143 -397q88 109 142.5 219t84 221t40 221.5t10.5 220.5q0 109 -10.5 219.5t-40 222t-84 221t-142.5 218.5l37 31q225 -213 333 -449.5t108 -462.5q0 -223 -106.5 -460.5t-334.5 -452.5z" />
<glyph unicode="*" horiz-adv-x="1067" d="M143 811q0 23 13.5 43t38.5 35q23 12 49 18t55 10.5t57.5 10.5t55.5 20q41 23 50 29t9 12t-8 12.5t-51 28.5q-27 14 -55.5 20.5t-57.5 10.5t-55.5 9t-48.5 17q-25 14 -38.5 36t-13.5 44q0 37 27 61.5t59 24.5q27 0 56 -16q25 -14 39 -33.5t28.5 -40t29.5 -41t42 -37.5 q29 -18 48.5 -29.5t25.5 -11.5q10 0 10 35v45q0 29 -9.5 53.5t-20.5 48t-20 48t-9 53.5q0 47 25.5 75t62.5 28q35 0 59.5 -28t24.5 -75q0 -29 -9.5 -53.5t-20.5 -48t-20.5 -48t-9.5 -53.5v-63q0 -16 10 -17q8 0 22.5 8.5t49.5 30.5q27 18 43 39t30.5 41.5t29 39t38.5 34.5 q29 16 58 16q35 0 58.5 -24.5t23.5 -59.5q0 -23 -12.5 -44t-37.5 -38q-27 -14 -53 -19t-54 -8t-55.5 -9.5t-54.5 -20.5q-41 -23 -50 -29t-9 -12q0 -4 8 -11t51 -30q27 -16 53.5 -21t54.5 -8.5t55.5 -8.5t51.5 -19q29 -16 40.5 -38t11.5 -44q0 -33 -22.5 -58.5t-59.5 -25.5 q-33 0 -60 18q-25 16 -39 36t-27.5 39.5t-29.5 39t-43 37.5q-35 23 -50 31t-24 8q-8 0 -8 -16v-64q0 -29 9.5 -53.5t20.5 -48t20.5 -48t9.5 -53.5q0 -47 -25 -74.5t-59 -27.5q-37 0 -62.5 27.5t-25.5 74.5q0 29 9 53.5t20 48t20.5 48t9.5 53.5v45q0 35 -8 35 q-6 0 -26.5 -11.5t-49.5 -29.5q-27 -16 -42 -36.5t-29.5 -41t-29 -40t-38.5 -34.5q-29 -16 -56 -16q-33 0 -59.5 24.5t-26.5 61.5z" />
<glyph unicode="+" horiz-adv-x="1163" d="M123 668v98h407v383h101v-383h409v-98h-409v-383h-101v383h-407z" />
<glyph unicode="," horiz-adv-x="561" d="M143 86q0 55 37 88t82 33q27 0 54.5 -11.5t50 -35t37 -58t14.5 -84.5q0 -51 -18.5 -95t-49.5 -83t-70.5 -71.5t-84.5 -59.5l-23 31q92 63 122 119.5t30 103.5q0 4 -1 11.5t-1 13.5v14q-16 -14 -35 -18t-33 -4q-45 0 -78 29.5t-33 76.5z" />
<glyph unicode="-" horiz-adv-x="587" d="M82 473v121h424v-121h-424z" />
<glyph unicode="." horiz-adv-x="536" d="M143 102q0 53 37 90t86 37q53 0 90 -36.5t37 -90.5q0 -51 -37 -86.5t-90 -35.5q-49 0 -86 35.5t-37 86.5z" />
<glyph unicode="/" horiz-adv-x="1447" d="M61 -426l1164 1796h100l-1169 -1796h-95z" />
<glyph unicode="0" horiz-adv-x="1073" d="M72 684q0 147 31.5 276.5t92 226.5t147.5 152.5t196 55.5q106 0 191 -55.5t145.5 -152.5t93 -226.5t32.5 -276.5q0 -125 -27.5 -252t-85 -228.5t-144.5 -165t-205 -63.5q-121 0 -208 63.5t-145.5 165t-86 228.5t-27.5 252zM332 684q0 -59 1 -132t7 -146.5t19.5 -142 t36 -123t57 -87.5t86.5 -33q76 0 116.5 69t60 170t22.5 216t3 209q0 55 -1 127t-7 145.5t-18.5 144t-35 126t-57 89.5t-83.5 34t-85 -34t-58.5 -89.5t-36 -126t-19.5 -144t-7 -145.5t-1 -127z" />
<glyph unicode="1" horiz-adv-x="808" d="M70 1257v37q57 2 120.5 11.5t128 21.5t127 29.5t117.5 38.5v-1178q0 -104 40 -141t140 -37v-39q-102 0 -173.5 4t-139.5 4q-37 0 -69.5 -1t-69.5 -3t-81 -3t-101 -1v39q51 0 90 6t65.5 26.5t39.5 55.5t13 94v856q0 94 -34.5 138.5t-137.5 44.5q-20 0 -45.5 -1.5 t-29.5 -1.5z" />
<glyph unicode="2" horiz-adv-x="1050" d="M70 0q27 55 56.5 100t63.5 90q70 92 160 186.5t169 197t133.5 217t54.5 251.5q0 145 -59.5 224.5t-160.5 79.5q-37 0 -72.5 -15.5t-63 -44.5t-45 -73t-17.5 -101q0 -39 9 -76t27.5 -65.5t47 -46t69.5 -17.5q25 0 53.5 12.5t51.5 41.5q-8 -88 -69.5 -133.5t-135.5 -45.5 q-49 0 -95 17.5t-83 51.5t-59.5 83t-22.5 110q0 88 41 154t103.5 110t138 66.5t143.5 22.5q86 0 170 -21.5t149.5 -67.5t105.5 -117t40 -169q0 -102 -52.5 -188t-131 -163t-172 -147.5t-175.5 -142.5q-25 -23 -42 -39t-32.5 -31.5t-29.5 -33t-35 -39.5h658 q-6 -37 -20.5 -90.5t-20.5 -88.5q-4 -20 -6.5 -35.5t-4.5 -34t-6 -43t-12 -63.5h-39q2 10 3 22.5t1 26.5q0 27 -7 47.5t-42 20.5h-737z" />
<glyph unicode="3" horiz-adv-x="1019" d="M66 164q0 35 23.5 60.5t57.5 25.5q29 0 53.5 -20.5t35.5 -57.5q4 -16 5 -30.5t1 -32.5q10 -39 59 -65t115 -26q117 0 190.5 92.5t73.5 278.5q0 49 -6 106.5t-22.5 105.5t-45 81t-74.5 33q-29 0 -53 -8.5t-43 -20.5q-25 -16 -45 -37.5t-37.5 -41t-35 -33t-37.5 -13.5 t-30.5 13.5t-10.5 27.5q0 20 20.5 37.5t38.5 28.5q57 33 113.5 70.5t100.5 89t70.5 117t26.5 153.5q0 104 -41 171.5t-135 67.5q-68 0 -117 -48t-49 -118t35 -111.5t88 -41.5q47 0 94 31q-16 -63 -69.5 -101.5t-118.5 -38.5q-80 0 -133 53.5t-53 137.5q0 61 29.5 114.5 t81.5 93.5t124 63.5t156 23.5q61 0 123.5 -12.5t112.5 -42t81 -81t31 -129.5q0 -66 -28.5 -120t-76 -99t-105.5 -81.5t-116 -63.5q4 0 18.5 1t24.5 1q68 0 134.5 -19.5t119.5 -60.5t87 -104.5t34 -149.5q0 -117 -48 -205t-125 -146t-174 -87t-196 -29q-47 0 -105 8.5 t-108.5 30t-85 60t-34.5 98.5z" />
<glyph unicode="4" horiz-adv-x="1091" d="M61 463v59l668 873h66v-871h231v-61h-231v-246q0 -49 7 -82t27.5 -54.5t56.5 -31.5t91 -10v-39q-102 0 -168 4t-133 4q-74 0 -148.5 -4t-179.5 -4v39q49 0 88 6t65.5 25.5t41 55.5t14.5 95v242h-496zM125 524h432v557z" />
<glyph unicode="5" horiz-adv-x="1005" d="M70 154q0 39 24.5 66.5t61.5 27.5q68 0 84 -78q4 -23 4 -41t2 -23q12 -39 49 -63.5t98 -24.5q74 0 125 39t85 98.5t49.5 133t15.5 141.5q0 72 -11.5 138.5t-36 118.5t-61.5 83t-88 31q-53 0 -115.5 -24.5t-115.5 -96.5q4 -16 10 -39t6 -45q0 -29 -13.5 -45t-35.5 -16 q-29 0 -37 20t-8 41q0 16 1 27.5t2 22.5t2 23.5t3 30.5l43 703q66 -55 133.5 -85t157.5 -30q115 0 192.5 46t110.5 104q-6 -66 -32.5 -130.5t-75 -115.5t-115 -83t-152.5 -32q-51 0 -93 9.5t-91 23.5l-23 -362q76 70 146.5 94t136.5 24q94 0 172 -26.5t133 -74.5t85 -117.5 t30 -155.5q0 -115 -44 -210.5t-120 -166t-176.5 -109.5t-212.5 -39q-51 0 -105.5 10.5t-98.5 33t-72.5 58t-28.5 85.5z" />
<glyph unicode="6" horiz-adv-x="1091" d="M86 674q0 72 14.5 152.5t43 161.5t72.5 155t104.5 131t136 91t168.5 34q33 0 81 -7.5t92 -25.5t74.5 -51t30.5 -84q0 -41 -22.5 -64.5t-55.5 -23.5q-39 0 -58 19.5t-28.5 44t-11.5 47t-4 26.5q-16 31 -47 49.5t-78 18.5q-90 0 -141 -69t-76 -165t-31 -199.5t-6 -173.5 q59 76 125 109t149 33q74 0 145 -26t126 -78t90 -132t35 -188q0 -98 -32 -186.5t-90 -155t-143 -105.5t-190 -39q-150 0 -242 65.5t-143 167t-69.5 226.5t-18.5 242zM346 473q0 -117 16.5 -202t46 -140t67.5 -80.5t81 -25.5q106 0 154.5 108.5t48.5 321.5q0 68 -9.5 132 t-31 115.5t-57 83t-91.5 31.5q-41 0 -73.5 -15.5t-60 -41t-50 -57t-41.5 -64.5v-166z" />
<glyph unicode="7" horiz-adv-x="993" d="M70 946q12 57 22 100.5t19.5 78t16.5 67.5t15 72q6 31 9.5 53t6.5 47t8 58.5t15 84.5h39q-6 -29 -6 -57q0 -33 13.5 -56.5t47.5 -23.5h658v-61q-86 -154 -152.5 -305.5t-124.5 -317.5q-31 -90 -53 -166t-40.5 -143.5t-33 -132t-30.5 -131.5q-16 -66 -45 -105t-90 -39 q-37 0 -74 28t-37 93q0 49 27.5 123t73.5 162t103.5 187.5t117 199.5t116 197.5t99.5 183.5h-422q-72 0 -115 -6.5t-70.5 -26.5t-43 -59t-29.5 -105h-41z" />
<glyph unicode="8" horiz-adv-x="1077" d="M86 334q0 63 24.5 115.5t64.5 94.5t89 74.5t98 57.5q-127 63 -180 150t-53 200q0 76 28.5 143.5t83 118.5t132.5 81t176 30q61 0 130 -19.5t125 -59.5t93 -99.5t37 -139.5q0 -88 -58.5 -163.5t-162.5 -131.5q127 -66 202.5 -160t75.5 -237q0 -82 -31.5 -156.5t-90 -132 t-142.5 -92.5t-188 -35q-78 0 -158 18.5t-145.5 61.5t-107.5 111.5t-42 169.5zM272 344q0 -80 22.5 -139.5t60.5 -100.5t89.5 -61t108.5 -20q49 0 96 17t85 52t60.5 86t22.5 119q0 74 -33.5 123t-90 88t-129 70.5t-150.5 70.5q-88 -59 -115 -140t-27 -165zM295 1133 q0 -70 31.5 -118t84 -84t118 -63.5t133.5 -58.5q57 63 76.5 129t19.5 131q0 141 -67.5 211t-166.5 70q-41 0 -82 -13.5t-73.5 -41t-53 -68.5t-20.5 -94z" />
<glyph unicode="9" horiz-adv-x="1091" d="M78 913q0 98 31.5 186.5t90 155t143.5 105.5t189 39q150 0 242 -65.5t143.5 -167t70 -226.5t18.5 -242q0 -72 -14.5 -152.5t-43 -161.5t-73 -154.5t-104.5 -131t-136 -91.5t-168 -34q-35 0 -82 7.5t-91 26t-75 51t-31 83.5q0 41 22.5 64.5t55.5 23.5q39 0 58.5 -19.5 t28.5 -44t11.5 -47t4.5 -26.5q16 -31 47 -49t78 -18q90 0 141 68.5t75.5 164.5t31 199.5t6.5 173.5q-59 -76 -125 -109t-150 -33q-74 0 -144.5 26t-126 78t-90 132t-34.5 188zM332 918q0 -68 8 -132.5t29.5 -116t58.5 -83t92 -31.5q39 0 73 15.5t61.5 41t50 57t40.5 64.5 v166q0 117 -16 202t-46 140t-67.5 81t-80.5 26q-106 0 -154.5 -109t-48.5 -321z" />
<glyph unicode=":" horiz-adv-x="536" d="M143 102q0 53 37 90t86 37q53 0 90 -36.5t37 -90.5q0 -51 -37 -86.5t-90 -35.5q-49 0 -86 35.5t-37 86.5zM143 788q0 53 37 90t86 37q53 0 90 -36.5t37 -90.5q0 -51 -37 -86.5t-90 -35.5q-49 0 -86 35.5t-37 86.5z" />
<glyph unicode=";" horiz-adv-x="561" d="M143 86q0 55 37 88t82 33q27 0 54.5 -11.5t50 -35t37 -58t14.5 -84.5q0 -51 -18.5 -95t-49.5 -83t-70.5 -71.5t-84.5 -59.5l-23 31q92 63 122 119.5t30 103.5q0 4 -1 11.5t-1 13.5v14q-16 -14 -35 -18t-33 -4q-45 0 -78 29.5t-33 76.5zM145 784q0 53 37 90t86 37 q53 0 90 -36.5t37 -90.5q0 -51 -36.5 -86.5t-90.5 -35.5q-49 0 -86 35.5t-37 86.5z" />
<glyph unicode="&#x3c;" horiz-adv-x="1157" d="M113 655v119l921 467v-108l-815 -416l815 -420v-109z" />
<glyph unicode="=" horiz-adv-x="1212" d="M123 551v94h967v-94h-967zM123 788v95h967v-95h-967z" />
<glyph unicode="&#x3e;" horiz-adv-x="1157" d="M123 188v109l815 420l-815 416v108l921 -467v-119z" />
<glyph unicode="?" horiz-adv-x="819" d="M92 1303q0 31 14.5 51t36 33.5t48 18.5t53.5 5q70 0 140.5 -35t123.5 -80q82 -70 135 -175t53 -218q0 -166 -88 -268.5t-262 -102.5h-28.5t-28.5 3v-193h-56v412h86q57 0 113.5 7t101 29.5t71 64.5t26.5 112q0 53 -21.5 108t-58.5 100.5t-88 74t-111 28.5q-20 0 -35 -6 q-4 -2 -15 -12.5t-28.5 -21.5t-40 -20.5t-47.5 -9.5q-35 0 -64.5 22.5t-29.5 72.5zM139 102q0 53 37 90t86 37q53 0 90 -36.5t37 -90.5q0 -51 -37 -86.5t-90 -35.5q-49 0 -86 35.5t-37 86.5z" />
<glyph unicode="@" horiz-adv-x="2007" d="M123 664q0 193 78 355.5t211 280t308 183t372 65.5q180 0 327.5 -51t250 -143t158.5 -218t56 -276q0 -106 -30.5 -222t-91 -213t-148.5 -159.5t-203 -62.5q-43 0 -86 10t-77 31.5t-57.5 56.5t-27.5 84q-18 -29 -44.5 -62.5t-61.5 -61.5t-77 -46t-91 -18q-74 0 -129 26.5 t-91 72.5t-54.5 106.5t-18.5 125.5q0 109 51 232q29 68 77 130t107.5 109.5t127 75t139.5 27.5q57 0 110.5 -30t79.5 -118l39 136h199l-131 -459q-6 -20 -15.5 -49t-18.5 -63t-15.5 -68.5t-6.5 -67.5q0 -53 23.5 -81t77.5 -28q84 0 155.5 54.5t122.5 138.5t80 186.5 t29 198.5q0 139 -52.5 255t-147.5 199t-230 128t-301 45t-313.5 -70t-258 -187.5t-175 -275.5t-64.5 -334q0 -147 46 -283t140 -239.5t238.5 -165t341.5 -61.5q57 0 130.5 5t156.5 25.5t175.5 61.5t186.5 111l20 -27q-150 -117 -313.5 -175.5t-351.5 -58.5q-231 0 -406.5 73 t-292 194t-175 274.5t-58.5 317.5zM784 428q0 -31 5.5 -60.5t18.5 -53t36.5 -38t60.5 -14.5q45 0 83 21.5t68.5 52.5t53.5 67.5t39 67.5q20 41 37.5 91t31 102.5t20.5 101.5t7 86q0 35 -6 69.5t-21.5 61.5t-42 43t-65.5 16q-43 0 -83 -30.5t-74.5 -79.5t-64.5 -112.5 t-52 -129.5q-18 -53 -35 -124.5t-17 -137.5z" />
<glyph unicode="A" horiz-adv-x="1390" d="M-10 0v37q154 0 211 153l452 1207h72l479 -1204q35 -90 79 -123t118 -33v-37q-61 0 -105.5 1t-79 2t-64.5 2t-60 1q-31 0 -56.5 -1t-58.5 -2t-76 -2t-108 -1v37q25 0 48 3t41.5 12t31 25.5t12.5 43.5q0 23 -6.5 44t-14.5 42l-125 332h-387l-127 -346q-6 -18 -10 -36 t-4 -32q0 -29 11 -46.5t29.5 -26.5t41 -12t45.5 -3v-37q-43 0 -73 1t-52.5 2t-40.5 2t-39 1q-23 0 -38 -1t-33.5 -2t-45 -2t-67.5 -1zM416 596h344l-174 459z" />
<glyph unicode="B" horiz-adv-x="1353" d="M76 0v37q33 0 62.5 5t52 19.5t36 40t13.5 68.5v1030q0 43 -13.5 68.5t-36 40t-52 19.5t-62.5 5v37q61 0 100 -1t67.5 -2t53.5 -2t57 -1q33 0 77 1t88 3t84 3t65 1q90 0 180 -14.5t162.5 -52t118 -101t45.5 -162.5q0 -66 -28 -118t-73 -90.5t-105.5 -64.5t-123.5 -36v-4 q63 -4 138 -25.5t138.5 -64.5t106.5 -108.5t43 -155.5q0 -100 -39 -172t-108.5 -118t-167 -67.5t-216.5 -21.5q-76 0 -176 5t-184 5q-37 0 -65.5 -1t-60.5 -2t-74 -2t-103 -1zM530 266q0 -53 5.5 -92t25 -66.5t57 -41t103.5 -13.5q61 0 106 23.5t75 63.5t44.5 93.5 t14.5 114.5q0 172 -73 256t-229 84h-129v-422zM530 745h109q72 0 119 26t74.5 68t38 94t10.5 107t-14.5 105.5t-46.5 87.5t-80 59.5t-115 22.5q-39 0 -67 -9.5t-28 -58.5v-502z" />
<glyph unicode="C" horiz-adv-x="1413" d="M92 688q0 145 57.5 273.5t157 224.5t232.5 152.5t286 56.5q111 0 207 -32t185 -91l34 69h37q0 -49 -1 -94t-1 -90q0 -49 3 -112.5t3 -118.5h-41q-12 188 -115.5 300.5t-289.5 112.5q-88 0 -167 -42t-139.5 -126t-95 -209.5t-34.5 -293.5q0 -100 17 -212t64.5 -206 t127 -155.5t206.5 -61.5q209 0 322 124t123 332h41q0 -31 -1 -66.5t-2 -70.5t-2 -65.5t-1 -48.5v-39t1 -41.5t2 -53t3 -75.5h-37l-47 80q-18 -14 -54 -37t-86.5 -44.5t-117 -37t-146.5 -15.5q-154 0 -287 46.5t-231 135.5t-155.5 222t-57.5 309z" />
<glyph unicode="D" horiz-adv-x="1527" d="M76 0v37q33 0 62.5 5t52 19.5t36 40t13.5 68.5v1030q0 43 -13.5 68.5t-36 40t-52 19.5t-62.5 5v37q61 0 105 -1t78 -2t63.5 -2t64.5 -1q33 0 74 2t85 4t87 4t80 2q156 0 288 -46t228 -133t151.5 -214t55.5 -289q0 -338 -179.5 -518t-523.5 -180q-37 0 -82 2t-91 3t-91 3 t-82 2q-35 0 -63.5 -1t-62.5 -2t-78 -2t-107 -1zM530 266q0 -57 5.5 -98t22.5 -66.5t53 -38t98 -12.5q113 0 190.5 47t126.5 130t70.5 196t21.5 246q0 127 -21.5 243.5t-71.5 206.5t-131 144.5t-200 54.5q-29 0 -48 -1t-60 -5q-25 -4 -40.5 -18.5t-15.5 -51.5v-977z" />
<glyph unicode="E" horiz-adv-x="1253" d="M76 0v37q33 0 62.5 5t52 19.5t36 40t13.5 68.5v1030q0 43 -13.5 68.5t-36 40t-52 19.5t-62.5 5v37q61 0 104 -1t76 -2t61.5 -2t61.5 -1q70 0 179.5 6t232.5 6q80 0 148.5 -2t150.5 -4l12 -305h-37q-6 78 -31.5 128t-68.5 78.5t-101.5 39t-130.5 10.5q-35 0 -81 -3t-74 -7 q-47 -6 -48 -56v-516h119q92 0 132 47.5t40 131.5h37q0 -47 -1 -80t-2 -56.5t-2 -40t-1 -32.5t1 -31.5t2 -38.5t2 -54.5t1 -78.5h-37q0 80 -40 127t-132 47h-119v-412q0 -74 10.5 -118t40 -65.5t82 -27.5t136.5 -6q74 0 136 9.5t110.5 38t79 83t38.5 144.5h39l-16 -326 q-92 -2 -168 -3t-160 -1q-174 0 -290.5 5t-182.5 5q-33 0 -62.5 -1t-63.5 -2t-78 -2t-105 -1z" />
<glyph unicode="F" horiz-adv-x="1153" d="M76 0v37q33 0 62.5 5t52 19.5t36 40t13.5 68.5v1030q0 43 -13.5 68.5t-36 40t-52 19.5t-62.5 5v37q61 0 105 -1t78 -2t63.5 -2t62.5 -1q70 0 170 6t223 6q82 0 155 -2t154 -4l27 -305h-37q-10 76 -38.5 125t-74.5 77.5t-107.5 41t-137.5 12.5q-35 0 -76 -2t-61 -6 q-51 -6 -52 -58v-540h129q92 0 127 48t35 132h37q0 -47 -1 -80t-1 -56.5t-1 -40t-1 -32.5t1 -31.5t1 -38t1 -54.5t1 -79h-37q0 80 -34.5 128t-127.5 48h-129v-489q0 -43 13.5 -68.5t36 -40t52.5 -19.5t62 -5v-37q-61 0 -104 1t-78 3t-64.5 3t-62.5 1q-35 0 -63.5 -1 t-63.5 -3t-78 -3t-104 -1z" />
<glyph unicode="G" horiz-adv-x="1546" d="M92 670q0 154 57.5 287t157 230t234.5 152.5t288 55.5q109 0 205 -33t187 -92l39 71h36q-2 -37 -4 -62.5t-3 -47t-1 -39.5v-41v-47.5t1 -44t1 -55v-80.5h-37q-4 94 -33.5 170.5t-82 131t-125 84t-162.5 29.5q-84 0 -163 -41t-140.5 -124.5t-99 -210.5t-37.5 -301 q0 -63 6 -135t21.5 -143t42 -134.5t68.5 -112.5t100.5 -78.5t137.5 -29.5q57 0 109.5 15t92.5 51t62.5 94.5t22.5 144.5q0 84 -32.5 127t-143.5 43v37q61 0 105.5 -1t79 -3t65.5 -3.5t65 -1.5q33 0 60.5 1.5t60.5 3.5t75 3t103 1v-37q-88 0 -122.5 -32t-34.5 -120 q0 -55 1 -113.5t5 -99.5q-74 -4 -138.5 -30.5t-132 -56t-146.5 -54.5t-179 -25q-150 0 -272.5 50.5t-212 142.5t-138.5 220t-49 284z" />
<glyph unicode="H" horiz-adv-x="1607" d="M76 0v37q33 0 62.5 5t52 19.5t36 40t13.5 68.5v1030q0 43 -13.5 68.5t-36 40t-52 19.5t-62.5 5v37q61 0 102 -1t72 -3t57.5 -3t61.5 -1q33 0 65.5 1t69.5 3t83 3t107 1v-37q-33 0 -62.5 -5t-52 -19.5t-36 -40t-13.5 -68.5v-469h547v469q0 43 -13 68.5t-35.5 40 t-52.5 19.5t-63 5v37q61 0 107.5 -1t83.5 -3t68.5 -3t66.5 -1q33 0 60.5 1t58.5 3t71.5 3t102.5 1v-37q-33 0 -62.5 -5t-52 -19.5t-36 -40t-13.5 -68.5v-1030q0 -43 13.5 -68.5t36 -40t52 -19.5t62.5 -5v-37q-61 0 -102 2t-72 4t-58.5 4t-60.5 2q-35 0 -66.5 -2t-68.5 -4 t-83 -4t-108 -2v37q33 0 63 5t52.5 19.5t35.5 40t13 68.5v504h-547v-504q0 -43 13.5 -68.5t36 -40t52.5 -19.5t62 -5v-37q-61 0 -107 2t-83 4t-70 4t-65 2q-35 0 -61.5 -2t-57.5 -4t-72 -4t-102 -2z" />
<glyph unicode="I" horiz-adv-x="770" d="M76 0v37q33 0 62.5 5t52 19.5t36 40t13.5 68.5v1030q0 43 -13.5 68.5t-36 40t-52 19.5t-62.5 5v37q61 0 103 -1t74 -3t59.5 -3t62.5 -1q33 0 64.5 1t67.5 3t81 3t106 1v-37q-33 0 -62.5 -5t-52 -19.5t-36 -40t-13.5 -68.5v-1030q0 -43 13.5 -68.5t36 -40t52.5 -19.5 t62 -5v-37q-61 0 -106 1t-81 3t-67.5 3t-64.5 1q-35 0 -62.5 -1t-59.5 -3t-74 -3t-103 -1z" />
<glyph unicode="J" horiz-adv-x="786" d="M-276 -373q0 47 31.5 69.5t62.5 22.5q45 0 68.5 -24.5t34.5 -54t14.5 -55t3.5 -27.5q16 -35 47.5 -43.5t70.5 -8.5q47 0 84 21.5t62.5 72t39 133.5t13.5 206v1261q0 43 -13.5 68.5t-36 40t-52 19.5t-62.5 5v37q61 0 104.5 -1t78 -3t63.5 -3t63 -1q33 0 63 1t64.5 3 t77.5 3t105 1v-37q-33 0 -63 -5t-52.5 -19.5t-35.5 -40t-13 -68.5v-1194q0 -115 -22.5 -215t-79 -175t-150.5 -119t-236 -44q-37 0 -94 5t-110.5 22.5t-92 52.5t-38.5 94z" />
<glyph unicode="K" horiz-adv-x="1509" d="M76 0v37q33 0 62.5 5t52 19.5t36 40t13.5 68.5v1030q0 43 -13.5 68.5t-36 40t-52 19.5t-62.5 5v37q61 0 106 -1t81 -3t66.5 -3t65.5 -1q33 0 61.5 1t60.5 3t74 3t103 1v-37q-33 0 -62.5 -5t-52 -19.5t-36 -40t-13.5 -68.5v-575q31 25 79 72.5t101.5 107t107.5 126t97 127 t71 112t28 79.5q0 57 -37 70.5t-90 13.5v37q45 0 75.5 -1t53 -2t43 -2t47.5 -1t46 1t42 2t52.5 2t76.5 1v-37q-66 0 -115 -24.5t-89 -65.5t-75.5 -93t-74.5 -108q-29 -39 -50.5 -68.5t-43 -56t-44 -54t-53.5 -64.5l547 -647q45 -53 88 -84t117 -31v-37q-61 0 -102.5 1t-73 2 t-62 2t-71.5 1t-74 -1t-68 -2t-79 -2t-107 -1v37q16 0 34.5 3t34 10t25.5 21.5t10 37.5q0 14 -7 29.5t-29 41.5l-365 430l-66 -59v-381q0 -43 13.5 -68.5t36 -40t52.5 -19.5t62 -5v-37q-61 0 -103 1t-74 3t-60.5 3t-61.5 1q-35 0 -65.5 -1t-66.5 -3t-81 -3t-106 -1z" />
<glyph unicode="L" horiz-adv-x="1224" d="M76 0v37q33 0 62.5 5t52 19.5t36 40t13.5 68.5v1030q0 43 -13.5 68.5t-36 40t-52 19.5t-62.5 5v37q61 0 104 -1t78 -3t63.5 -3t63.5 -1q33 0 62.5 1t64.5 3t78 3t104 1v-37q-33 0 -62.5 -5t-52 -19.5t-36 -40t-13.5 -68.5v-969q0 -63 19.5 -99t56.5 -54.5t89.5 -22.5 t117.5 -4q150 0 236 61.5t108 223.5h37l-20 -336q-78 -2 -164 -3t-164 -1q-141 0 -260 5t-193 5q-35 0 -65.5 -1t-66.5 -2t-80 -2t-105 -1z" />
<glyph unicode="M" horiz-adv-x="1845" d="M66 0v37q33 0 62.5 5t52 19.5t35.5 40t13 68.5v1030q0 43 -13 68.5t-35.5 40t-52.5 19.5t-62 5v37q57 0 95 -1t64.5 -2t46 -2t41.5 -1q41 0 98.5 3t104.5 3l404 -1001l409 1001q41 0 77 -3t83 -3q27 0 52.5 1t56 2t71.5 2t100 1v-37q-33 0 -62.5 -5t-52 -19.5t-35.5 -40 t-13 -68.5v-1030q0 -43 13 -68.5t35.5 -40t52.5 -19.5t62 -5v-37q-61 0 -104 1t-78 3t-64.5 3t-62.5 1q-35 0 -63.5 -1t-63.5 -3t-78 -3t-104 -1v37q33 0 62.5 5t52 19.5t36 40t13.5 68.5v1008l-481 -1180h-64l-479 1171v-999q0 -43 13 -68.5t35.5 -40t52.5 -19.5t63 -5v-37 q-41 0 -69 1t-49.5 2t-39.5 2t-41 1t-40 -1t-37.5 -2t-46.5 -2t-66 -1z" />
<glyph unicode="N" horiz-adv-x="1548" d="M66 1333v37q37 0 63.5 -1t48 -2t38.5 -2t40 -1q41 0 102.5 3t110.5 3l791 -969v799q0 43 -13.5 68.5t-36 40t-52.5 19.5t-62 5v37q41 0 66.5 -1t44 -2t34.5 -2t39 -1t42 1t40.5 2t50.5 2t70 1v-37q-33 0 -62.5 -5t-52 -19.5t-36 -40t-13.5 -68.5v-1225h-64l-936 1158 v-963q0 -43 13.5 -68.5t36 -40t52.5 -19.5t62 -5v-37q-41 0 -69.5 1t-51 2t-42 2t-41.5 1q-23 0 -39.5 -1t-35 -2t-43 -2t-65.5 -1v37q33 0 62.5 5t52 19.5t36 40t13.5 68.5v1026l-45 57q-29 37 -62.5 58.5t-86.5 21.5z" />
<glyph unicode="O" horiz-adv-x="1662" d="M92 686q0 156 56.5 286t155.5 224t235.5 146.5t294.5 52.5q147 0 280 -50.5t234.5 -143.5t162 -225t60.5 -294q0 -166 -60.5 -297t-162 -223t-234.5 -141.5t-280 -49.5q-158 0 -293 50.5t-234.5 143.5t-157 225t-57.5 296zM410 682q0 -137 25.5 -256t77.5 -207t132 -139 t189 -51q104 0 183 51t131 139t78.5 207t26.5 256q0 131 -26.5 251t-78.5 210t-131 143t-183 53q-109 0 -189 -55t-132 -146t-77.5 -210t-25.5 -246z" />
<glyph unicode="P" horiz-adv-x="1265" d="M76 0v37q33 0 62.5 5t52 19.5t36 40t13.5 68.5v1030q0 43 -13.5 68.5t-36 40t-52 19.5t-62.5 5v37q123 0 191.5 -2t119.5 -2q25 0 58.5 2t70.5 3t74 3t69 2q92 0 185.5 -15t168 -53t122 -104.5t47.5 -171.5q0 -119 -46 -195.5t-120 -122.5t-167 -64.5t-187 -18.5 q-39 0 -68 1t-64 5v-467q0 -43 13.5 -68.5t36 -40t52.5 -19.5t62 -5v-37q-61 0 -105 1t-79 3t-65.5 3t-63.5 1q-35 0 -63.5 -1t-61.5 -3t-76 -3t-104 -1zM530 692q43 -6 88 -6q76 0 124.5 23.5t77 67.5t39.5 105.5t11 137.5q0 57 -11 111.5t-38.5 96.5t-74 67.5t-115.5 25.5 q-41 0 -71 -13.5t-30 -62.5v-553z" />
<glyph unicode="Q" horiz-adv-x="1660" d="M92 684q0 160 57.5 290t157 224t234.5 145.5t293 51.5q147 0 280 -50.5t234.5 -143.5t162 -225t60.5 -294q0 -160 -54.5 -287t-147.5 -217t-217 -142t-261 -65q-57 -16 -105.5 -41.5t-99.5 -58.5q47 16 100.5 22.5t100.5 6.5q102 0 190 -31t169 -69t159 -68.5t158 -30.5 q33 0 67.5 3t64 17.5t51 43t28.5 77.5h36q0 -82 -18 -158.5t-58 -137t-106.5 -97.5t-161.5 -37q-88 0 -160.5 30t-134 73t-117 95t-112.5 95t-118.5 72.5t-135.5 29.5q-68 0 -117 -26.5t-98 -54.5q-12 -8 -29.5 -16.5t-40.5 -8.5q-18 0 -30.5 11.5t-12.5 29.5q0 27 24 47.5 t53.5 32.5t57 19t33.5 12q16 6 45 22t60 35.5t59.5 37t42.5 27.5q-139 14 -257 71.5t-204 150t-134 216.5t-48 271zM410 682q0 -137 24.5 -257t75.5 -208t132 -138t192 -50q106 0 185 50t131 138t77.5 208t25.5 257q0 131 -25.5 251t-77.5 210t-131 143t-183 53 q-109 0 -189 -53t-132 -143t-78.5 -210t-26.5 -251z" />
<glyph unicode="R" horiz-adv-x="1462" d="M76 0v37q33 0 62.5 5t52 19.5t36 40t13.5 68.5v1030q0 43 -13.5 68.5t-36 40t-52 19.5t-62.5 5v37q61 0 106 -1t81 -1t65.5 -1t62.5 -1q53 0 134 5t167 5q80 0 170 -12t167 -49t127 -105.5t50 -181.5q0 -72 -27.5 -131t-73.5 -103t-107.5 -71t-131.5 -35l87.5 -112.5 t110.5 -142.5t119.5 -151.5t116.5 -140.5q47 -53 89.5 -78.5t93.5 -25.5v-37q-45 0 -74 1t-50.5 2t-38.5 2t-42 1q-51 0 -104.5 -3t-112.5 -3q-63 80 -113.5 149.5t-98.5 136t-97.5 135t-110.5 146.5q-31 39 -49.5 51.5t-52.5 12.5h-9v-461q0 -43 13.5 -68.5t36 -40 t52.5 -19.5t62 -5v-37q-61 0 -103 1t-74 3t-60.5 3t-61.5 1q-35 0 -65.5 -1t-66.5 -3t-81 -3t-106 -1zM530 688h93q78 0 130 24.5t82.5 69.5t44 108.5t13.5 141.5q0 55 -14.5 106.5t-44 91.5t-75.5 64.5t-112 24.5q-16 0 -36.5 -1t-38 -9.5t-30 -23.5t-12.5 -42v-555z" />
<glyph unicode="S" horiz-adv-x="1073" d="M102 16q0 63 2 100.5t2 78.5q0 43 -2 107.5t-2 129.5h41q4 -72 33 -143.5t77 -129t115.5 -92t151.5 -34.5q72 0 123 21.5t85 55t49.5 76.5t15.5 88q0 61 -24 105.5t-63.5 79.5t-92 62.5t-109.5 53.5q-66 31 -132.5 65t-119.5 83t-87 119.5t-34 173.5q0 84 34 153.5 t89 120.5t126 79t146 28q78 0 150 -28t135 -79l43 78h37q0 -35 -1 -73t-1 -74q0 -18 2 -47t3 -60t3 -61.5t2 -51.5h-41q-6 59 -31.5 120t-68.5 110t-99.5 79.5t-123.5 30.5q-55 0 -94.5 -18t-64 -47t-35.5 -63.5t-11 -69.5q0 -68 35.5 -116t89 -85t115 -65.5t114.5 -53.5 q68 -33 126 -71.5t100 -88t66.5 -114t24.5 -150.5q0 -94 -35.5 -171.5t-98 -134t-149.5 -87.5t-188 -31q-102 0 -184 32t-160 89l-47 -80h-37z" />
<glyph unicode="T" horiz-adv-x="1327" d="M41 1047l12 327q47 2 91 2h79q82 0 145.5 -1t115 -2t92 -2t79.5 -1t81 1t94.5 2t117 2t150.5 1h82t92 -2l14 -327h-37q-4 51 -20.5 100t-48 88t-77.5 63.5t-108 24.5h-13t-26.5 -1t-54.5 -3t-92 -4v-1145q0 -43 13.5 -68.5t36 -40t52 -19.5t62.5 -5v-37q-61 0 -105.5 1 t-78 3t-64.5 3t-63 1q-35 0 -64 -1t-62.5 -3t-76.5 -3t-105 -1v37q33 0 62.5 5t52.5 19.5t36 40t13 68.5v1145q-102 4 -140 5t-48 1q-121 -2 -182.5 -80t-69.5 -194h-37z" />
<glyph unicode="U" horiz-adv-x="1513" d="M55 1333v37q61 0 101.5 -1t71 -3t56 -3t60.5 -1q33 0 65.5 1t71.5 3t85 3t108 1v-37q-33 0 -62.5 -5t-52 -19.5t-36 -40t-13.5 -68.5v-719q0 -104 16.5 -184t56.5 -134t108.5 -83t172.5 -29q188 0 286.5 116t98.5 314v719q0 43 -13 68.5t-35.5 40t-52.5 19.5t-63 5v37 q41 0 68 -1t47.5 -2t38.5 -2t41 -1t40 1t37.5 2t47.5 2t68 1v-37q-33 0 -63 -5t-52.5 -19.5t-35.5 -40t-13 -68.5v-711q0 -137 -36 -234t-102.5 -158.5t-159.5 -90.5t-210 -29q-98 0 -201.5 17.5t-188.5 71t-138.5 152.5t-53.5 263v719q0 43 -13 68.5t-36 40t-52.5 19.5 t-62.5 5z" />
<glyph unicode="V" horiz-adv-x="1429" d="M20 1333v37q123 0 195 -3t127 -3q29 0 52.5 1t54 2t72.5 2t108 1v-37q-27 -2 -51.5 -5t-44 -12t-30.5 -27.5t-11 -49.5q0 -20 7 -42.5t13 -41.5l309 -825l324 807q20 47 20 88q0 63 -43 85.5t-94 22.5v37q86 0 128 -3t79 -3q20 0 37.5 1t36 2t42 2t58.5 1v-37 q-61 -2 -104 -30.5t-68 -92.5l-498 -1243h-65l-463 1207q-29 78 -67 118.5t-124 40.5z" />
<glyph unicode="W" horiz-adv-x="2056" d="M10 1333v37q72 0 122 -1t88 -3t68.5 -3t63.5 -1q31 0 55.5 1t56.5 3t76 3t113 1v-37q-27 0 -56.5 -3t-54 -13t-41 -32.5t-16.5 -59.5q0 -20 5.5 -42t11.5 -40l256 -766l256 723q-23 70 -43.5 116t-43 71.5t-52 35.5t-72.5 10v37q74 0 120 -1t77.5 -3t54 -3t51.5 -1 q27 0 55.5 1t66.5 3t91 3t133 1v-37q-37 0 -70.5 -4t-58.5 -18.5t-39 -41t-14 -71.5q0 -41 12 -85t29 -95l215 -645l241 741q18 55 19 92q0 74 -44 98.5t-134 28.5v37q49 0 79.5 -1t52 -2t39 -2t44.5 -1q25 0 45 1t43.5 2t55.5 2t79 1v-37q-47 0 -79 -10t-54.5 -31.5 t-38.5 -55.5t-31 -79l-387 -1190h-74l-338 1039l-362 -1039h-74l-411 1223q-29 84 -75 113.5t-112 29.5z" />
<glyph unicode="X" horiz-adv-x="1431" d="M10 0v37q55 2 96 14t75 37t63.5 59.5t62.5 79.5l297 404l-362 563q-35 55 -84 97t-138 42v37q123 0 207 -4t131 -4t114 4t181 4v-37q-10 0 -30.5 -1t-43 -7t-39 -19.5t-16.5 -37.5q0 -20 9.5 -39t27.5 -47l221 -336l246 332q39 55 39 84q0 25 -12.5 39t-33 21t-44 9 t-43.5 2v37q45 0 76.5 -1t56.5 -3t46.5 -3t45.5 -1q23 0 42.5 1t41 3t48 3t65.5 1v-37q-78 0 -132.5 -30.5t-99.5 -90.5l-307 -421l393 -615q41 -66 91.5 -99.5t140.5 -39.5v-37q-63 0 -108.5 1t-79 3t-58.5 3t-47 1q-47 0 -126 -4t-214 -4v37q14 0 35.5 1t40 7t32 19.5 t13.5 37.5q0 27 -31 74l-258 402l-279 -381q-23 -33 -31.5 -52.5t-8.5 -38.5q0 -25 11 -39t29.5 -20t41 -8t45.5 -2v-37q-43 0 -75 1t-56.5 2t-46 2t-44.5 1t-43 -1t-43.5 -2t-54.5 -2t-76 -1z" />
<glyph unicode="Y" horiz-adv-x="1370" d="M10 1333v37q51 0 91 -1t75 -3t67.5 -3t67.5 -1q33 0 62.5 1t63.5 3t74 3t95 1v-37q-18 0 -37.5 -2t-37 -10t-27.5 -22.5t-10 -41.5t9 -50t25 -54l254 -483l293 479q16 25 25.5 49.5t9.5 44.5q0 53 -34 71.5t-87 18.5v37q43 0 73 -1t51.5 -2t38.5 -2t36 -1q18 0 32.5 1 t32 2t42 2t65.5 1v-37q-39 0 -66.5 -11t-50 -30.5t-42 -46t-38.5 -59.5l-336 -557v-459q0 -43 13.5 -68.5t36 -40t52 -19.5t62.5 -5v-37q-61 0 -102 1t-72 3t-58.5 3t-60.5 1q-35 0 -66.5 -1t-68.5 -3t-83 -3t-107 -1v37q33 0 62.5 5t52 19.5t36 40t13.5 68.5v414l-320 581 q-27 47 -47 78t-42 50.5t-49.5 27.5t-68.5 12z" />
<glyph unicode="Z" horiz-adv-x="1204" d="M61 0l719 1313q-66 2 -109.5 3t-75.5 2t-56.5 1h-51.5h-68.5t-51.5 -4q-45 -4 -80 -26.5t-59.5 -58.5t-40 -82t-19.5 -95h-37l16 317q57 2 138.5 4t138.5 2q117 0 217 -4t217 -4h133.5t130.5 2l-716 -1309q113 -2 189.5 -3t124.5 -1h69.5h23.5q135 0 203.5 76t85.5 213 h37l-19 -346q-55 -2 -114.5 -2h-116.5q-70 0 -151 1t-159.5 1t-150.5 1t-123 1h-58.5t-68.5 -1t-65.5 -1h-51.5z" />
<glyph unicode="[" horiz-adv-x="821" d="M246 -426v1796h432v-55h-262v-1684h262v-57h-432z" />
<glyph unicode="\" horiz-adv-x="1230" d="M-20 1370h108l1163 -1796h-102z" />
<glyph unicode="]" horiz-adv-x="821" d="M143 -369h263v1684h-263v55h432v-1796h-432v57z" />
<glyph unicode="^" horiz-adv-x="1069" d="M82 530l405 813h95l405 -813h-121l-331 670l-332 -670h-121z" />
<glyph unicode="_" horiz-adv-x="1191" d="M82 -182h1028v-105h-1028v105z" />
<glyph unicode="`" horiz-adv-x="684" d="M133 1343q0 33 21.5 52.5t50.5 19.5q23 0 40 -11t36 -32l280 -317h-49l-274 174q-41 25 -73 47t-32 67z" />
<glyph unicode="a" horiz-adv-x="1015" d="M86 184q0 74 46 127.5t111.5 91t137.5 64.5t123 49q55 25 84.5 41t29.5 35v59q0 25 -3 61t-19 69.5t-51.5 57t-98.5 23.5q-31 0 -64.5 -4t-62 -13t-47 -21.5t-18.5 -28.5q0 -4 7 -27t7 -51q0 -35 -19.5 -60.5t-58.5 -25.5q-35 0 -59.5 25.5t-24.5 74.5q0 55 39 90 t95.5 54.5t120 26.5t110.5 7q70 0 137.5 -13t118.5 -46t83 -88t32 -139v-449q0 -16 2 -35.5t8 -37t19.5 -29t37.5 -11.5q23 0 36 16.5t24 33.5l26 -15q-4 -10 -16 -29.5t-33.5 -39t-54.5 -35t-76 -15.5q-78 0 -122 32t-66 93q-72 -59 -141.5 -92t-166.5 -33q-45 0 -87 12.5 t-74.5 38t-52 64.5t-19.5 92zM309 217q0 -27 7.5 -52.5t21.5 -47t35.5 -34.5t50.5 -13q57 0 107.5 26.5t86.5 65.5v354q-59 -31 -114 -54.5t-98.5 -54t-70 -74.5t-26.5 -116z" />
<glyph unicode="b" horiz-adv-x="1155" d="M20 1294v37q37 2 85.5 9.5t97.5 16.5t95 20.5t83 25.5v-598q51 53 113.5 76.5t128.5 23.5q80 0 158.5 -28.5t141 -85t101.5 -139.5t39 -193q0 -123 -40 -214t-104.5 -150.5t-147.5 -89.5t-169 -30q-74 0 -138.5 32t-129.5 104l-144 -123h-32v1190q0 39 -10.5 62.5 t-29 35.5t-43 15t-55.5 3zM381 283q0 -76 19.5 -125t50 -78t66.5 -40t71 -11q76 0 121 42t69.5 103.5t31.5 133t7 132.5q0 68 -11 139.5t-37 132t-69 98.5t-106 38q-55 0 -96 -18.5t-66.5 -50t-38 -72.5t-12.5 -86v-338z" />
<glyph unicode="c" horiz-adv-x="911" d="M82 424q0 102 39 191.5t105.5 154t156.5 101t195 36.5q27 0 71.5 -7t87.5 -24.5t75 -49t32 -81.5q0 -33 -19.5 -59.5t-64.5 -26.5q-31 0 -53.5 26t-22.5 67q0 16 3 34.5t3 20.5q0 12 -11 22.5t-27.5 16.5t-36 10t-37.5 4q-72 0 -120 -37t-78 -96t-42 -135t-12 -154 q0 -193 68.5 -296t185.5 -103q49 0 91 11t75.5 29.5t58 40t43.5 42.5l22 -21q-66 -86 -160 -126t-186 -40q-90 0 -170 30t-140 87.5t-96 140t-36 191.5z" />
<glyph unicode="d" horiz-adv-x="1181" d="M82 455q0 88 34 170t94 143t144 98t185 37q82 0 140 -31.5t93 -78.5v385q0 39 -10 62.5t-28.5 35.5t-43 15t-55.5 3v37q37 2 84 9.5t96 16.5t96 21.5t84 24.5v-1147q0 -100 38 -135t108 -35v-37q-27 -6 -67 -13t-83 -16.5t-85 -19.5t-72 -18q-10 27 -18.5 59.5 t-16.5 77.5q-45 -63 -108.5 -103.5t-162.5 -40.5q-102 0 -185 36t-141.5 100.5t-89 151.5t-30.5 192zM328 442q0 -43 7 -111.5t30.5 -135t66.5 -114.5t115 -48q102 0 163.5 67.5t61.5 221.5v299q0 41 -12 80.5t-38 71.5t-65 51.5t-90 19.5q-61 0 -107 -37t-75 -94.5 t-43 -129t-14 -141.5z" />
<glyph unicode="e" horiz-adv-x="1013" d="M82 428q0 98 37 184t100.5 151.5t149.5 103.5t184 38q72 0 139.5 -23.5t119.5 -67.5t86 -105.5t40 -135.5q0 -12 -1 -22t-11 -10h-600q-4 -35 -5.5 -58.5t-1.5 -52.5q0 -86 19.5 -158.5t54.5 -125t86 -81t115 -28.5q55 0 98 14.5t78 33.5t59.5 43t42.5 42l23 -20 q-25 -31 -58.5 -62t-76.5 -55.5t-97.5 -41t-119.5 -16.5q-86 0 -168 30t-147.5 87.5t-105.5 142t-40 193.5zM332 590h340q33 0 33 33q0 39 -7.5 80.5t-26 76.5t-48 57.5t-74.5 22.5q-57 0 -95 -26.5t-62.5 -66.5t-38 -87t-21.5 -90z" />
<glyph unicode="f" horiz-adv-x="716" d="M66 0v37q31 0 55 3t42.5 15.5t29 35t10.5 63.5v686h-133v47h133v92q0 29 4 72t17.5 90t40 94t70.5 84t108.5 60.5t156.5 23.5q31 0 78 -6t91 -23.5t76 -48.5t32 -80q0 -27 -18.5 -49t-53.5 -22q-27 0 -48.5 15t-31.5 44t-9 45t-1 20q-25 59 -115 60q-61 0 -97 -31 t-53.5 -76t-21.5 -95t-4 -89v-180h211v-47h-211v-674q0 -45 17.5 -70.5t43 -39t57 -16.5t62.5 -3v-37q-66 0 -107.5 1t-71.5 2t-54.5 2t-51.5 1q-29 0 -53 -1t-53 -2t-63.5 -2t-83.5 -1z" />
<glyph unicode="g" horiz-adv-x="1128" d="M66 -297q0 33 12 62.5t33.5 51t49 35t58.5 13.5q35 0 64.5 -12.5t40.5 -24.5q-53 -16 -78 -55t-25 -92q0 -29 9.5 -66t39 -70.5t85 -56.5t147.5 -23q76 0 134 18.5t98 49.5t60.5 71t20.5 83q0 68 -29.5 106.5t-81 59t-122 26.5t-150.5 8q-43 2 -96 8.5t-99.5 28t-77 62.5 t-30.5 110q0 72 52 123t136 64q-98 35 -165.5 112.5t-67.5 184.5q0 68 27.5 127t79 103t121 69.5t155.5 25.5q57 0 103 -12t79 -28.5t54.5 -34t33.5 -29.5q41 35 90.5 64.5t114.5 29.5q20 0 43 -4t42.5 -15.5t32.5 -31t13 -47.5q0 -31 -21.5 -53.5t-54.5 -22.5q-27 0 -44 11 t-26 25.5t-14.5 27t-7.5 14.5q-10 10 -31 10q-23 0 -52.5 -16.5t-47.5 -32.5q25 -33 46.5 -81t21.5 -99q0 -49 -15.5 -104.5t-55.5 -102.5t-111.5 -80t-182.5 -41q-23 -2 -61.5 -3t-75.5 -8.5t-63.5 -22.5t-26.5 -44q0 -31 28.5 -44t72.5 -17t99.5 -4t110.5 -3 q78 -4 148.5 -19t125 -52t87 -98.5t32.5 -157.5q0 -80 -33.5 -146.5t-94 -114.5t-144.5 -75t-182 -27q-135 0 -220 30t-133.5 73t-64.5 93t-16 91zM311 578q0 -84 13.5 -138.5t35 -85t48 -43t55.5 -12.5q31 0 58.5 12.5t48 43t32.5 85t12 138.5t-12 138t-33.5 84.5t-48 43 t-55.5 12.5t-56.5 -12.5t-49 -43t-35 -84.5t-13.5 -138z" />
<glyph unicode="h" horiz-adv-x="1218" d="M61 0v37q31 0 55.5 3t43 15.5t29 35t10.5 63.5v1026q0 39 -10.5 62.5t-29 35.5t-43 15t-55.5 3v37q37 2 84.5 9.5t95.5 16.5t95 21.5t84 24.5v-645q51 74 118.5 111.5t172.5 37.5q111 0 173 -42t94 -101t40 -121.5t8 -101.5v-389q0 -41 10.5 -63.5t28.5 -35t43 -15.5 t55 -3v-37q-49 0 -85 1t-64.5 2t-53 2t-51.5 1q-29 0 -52 -1t-49 -2t-59.5 -2t-82.5 -1v37q31 0 55 3t42.5 15.5t29 35t10.5 63.5v391q0 25 -3 74t-18.5 98t-48.5 86t-94 37q-41 0 -80 -20.5t-69.5 -56.5t-49 -85t-18.5 -109v-415q0 -41 10 -63.5t28.5 -35t43 -15.5t55.5 -3 v-37q-49 0 -85 1t-64.5 2t-53 2t-51.5 1q-29 0 -52.5 -1t-49 -2t-59 -2t-83.5 -1z" />
<glyph unicode="i" horiz-adv-x="614" d="M61 0v37q31 0 55.5 3t43 15.5t29 35t10.5 63.5v532q0 39 -10.5 62.5t-29 36t-43 15.5t-55.5 3v37q37 2 84.5 9t96.5 16t96 20.5t84 25.5v-757q0 -41 10 -63.5t28.5 -35t43 -15.5t55.5 -3v-37q-49 0 -85 1t-64.5 2t-53 2t-51.5 1q-29 0 -52.5 -1t-49 -2t-59 -2t-83.5 -1z M162 1231q0 51 36 88t87 37t88 -37t37 -88t-37 -87t-88 -36t-87 36t-36 87z" />
<glyph unicode="j" horiz-adv-x="575" d="M-291 -399q0 33 21.5 52t48.5 19q35 0 54.5 -19.5t28.5 -43t11 -45t4 -25.5q16 -29 45 -40t76 -11q70 0 107.5 41t55 107.5t20.5 150.5t3 168v731q0 39 -10 62.5t-28.5 36t-43 15.5t-55.5 3v37q37 2 84 9t96 16t96.5 21.5t84.5 24.5v-956q0 -94 -14.5 -187.5t-58.5 -167 t-127 -118.5t-218 -45q-31 0 -79 7t-92 25.5t-77 50t-33 81.5zM152 1231q0 51 35.5 88t86.5 37t88 -37t37 -88t-36.5 -87t-88.5 -36q-51 0 -86.5 36t-35.5 87z" />
<glyph unicode="k" horiz-adv-x="1087" d="M55 0v37q31 0 55.5 3t43 15.5t29 35t10.5 63.5v1028q0 39 -10.5 62.5t-29 35.5t-43 15t-55.5 3v35q37 2 84 9.5t96.5 16.5t96.5 21.5t84 24.5v-969q20 18 55 53t73 77t75.5 85t64.5 78q29 39 29 68q0 55 -97 55v35q35 0 56.5 -1t38 -1t31 -1t32.5 -1q37 0 72 2t96 2v-35 q-23 0 -44 -3t-36 -9q-25 -10 -47 -33t-52 -58.5t-72 -87t-105 -120.5l205 -238q55 -63 99 -114.5t103 -108.5q33 -31 55.5 -37t49.5 -6v-37q-35 0 -58.5 1t-43 1t-37 1t-39.5 1q-29 0 -59 -2t-85 -2l-330 401l-30 -30v-217q0 -41 10 -63.5t28.5 -35t43 -15.5t55.5 -3v-37 q-49 0 -84 1t-62.5 2t-52 2t-51.5 1q-29 0 -52.5 -1t-51 -2t-61.5 -2t-83 -1z" />
<glyph unicode="l" horiz-adv-x="620" d="M61 0v37q31 0 55.5 3t43 15.5t29 35t10.5 63.5v1017q0 39 -10.5 62.5t-29 36t-43 15.5t-55.5 3v37q37 2 84.5 9t96.5 16.5t96 20.5t84 26v-1243q0 -41 10 -63.5t28.5 -35t43 -15.5t55.5 -3v-37q-49 0 -85 1t-63.5 2t-52 2t-51.5 1q-29 0 -52.5 -1t-50 -2t-60 -2t-83.5 -1 z" />
<glyph unicode="m" horiz-adv-x="1779" d="M66 0v37q31 0 55 3t42.5 15.5t29 35t10.5 63.5v534q0 39 -10.5 62.5t-29 36t-43 15.5t-54.5 3v37q35 4 78.5 11t89 16.5t88.5 21.5t75 27q10 -35 14.5 -65t8.5 -89q53 76 123.5 110.5t158.5 34.5q86 0 151 -45t99 -116q53 92 134 126.5t182 34.5q104 0 166.5 -35.5 t96.5 -89t45 -115t11 -114.5v-401q0 -41 10.5 -63.5t29 -35t43 -15.5t54.5 -3v-37q-49 0 -83.5 1t-60.5 2t-49.5 2t-49.5 1q-29 0 -53.5 -1t-53 -2t-63.5 -2t-84 -1v37q31 0 55.5 3t42.5 15.5t28.5 35t10.5 63.5v405q0 23 -3 71t-18.5 97t-50.5 86t-98 37q-74 0 -131 -61.5 t-57 -184.5v-450q0 -41 10 -63.5t28.5 -35t43 -15.5t55.5 -3v-37q-49 0 -84 1t-62.5 2t-51 2t-50.5 1q-29 0 -52.5 -1t-50 -2t-60.5 -2t-83 -1v37q31 0 55.5 3t42 15.5t27.5 35t10 63.5v385q0 31 -2 80t-17 97t-50 81.5t-99 33.5q-43 0 -77.5 -21.5t-60 -58t-39 -86 t-13.5 -104.5v-407q0 -41 10 -63.5t28.5 -35t43 -15.5t55.5 -3v-37q-49 0 -85 1t-64.5 2t-53 2t-51.5 1q-29 0 -52.5 -1t-49 -2t-59 -2t-82.5 -1z" />
<glyph unicode="n" horiz-adv-x="1212" d="M66 0v37q31 0 55 3t42.5 15.5t29 35t10.5 63.5v534q0 39 -10.5 62.5t-29 36t-43 15.5t-54.5 3v37q35 4 77.5 11t85.5 16.5t84 21.5t74 27q10 -51 15.5 -91.5t7.5 -74.5q53 84 133 120.5t172 36.5q104 0 164.5 -36.5t91 -90t40 -112t9.5 -103.5v-413q0 -41 10 -63.5 t28.5 -35t43 -15.5t55.5 -3v-37q-49 0 -83 1t-60.5 2t-49 2t-49.5 1q-29 0 -53 -1t-53 -2t-64.5 -2t-85.5 -1v37q31 0 55.5 3t43 15.5t29 35t10.5 63.5v403q0 25 -3 71t-18.5 92t-49.5 81t-95 35q-47 0 -85 -21.5t-64.5 -56.5t-41 -81t-14.5 -97v-426q0 -41 10 -63.5 t28.5 -35t43 -15.5t55.5 -3v-37q-49 0 -86 1t-66.5 2t-55 2t-52.5 1q-29 0 -51.5 -1t-47 -2t-57 -2t-81.5 -1z" />
<glyph unicode="o" d="M82 442q0 106 39 192.5t105.5 148t155.5 94t189 32.5q96 0 183.5 -32.5t154 -94t105.5 -148t39 -190.5q0 -102 -37 -188t-102.5 -148.5t-153.5 -98.5t-189 -36q-102 0 -191 36t-154.5 98.5t-104.5 148.5t-39 186zM328 442q0 -86 14 -162.5t44 -134t76 -91.5t109 -34 q61 0 105.5 34t74 91.5t43 135t13.5 163.5t-13.5 162t-43 133.5t-74 90t-105.5 32.5q-63 0 -109 -32.5t-76 -90t-44 -134.5t-14 -163z" />
<glyph unicode="p" horiz-adv-x="1179" d="M51 -498q31 0 55.5 3t43 15.5t28.5 35t10 63.5v1059q0 39 -10 62.5t-28.5 35.5t-43 15.5t-55.5 3.5v36q35 4 78 11.5t86 16.5t84 21.5t74 26.5q10 -41 14 -73.5t6 -59.5q47 63 117 99t149 36q106 0 188.5 -36.5t137.5 -101t84 -154t29 -195.5q0 -90 -32 -171t-90 -142.5 t-138 -97.5t-179 -36q-88 0 -150.5 32t-96.5 79v-467q0 -41 10 -63.5t28.5 -35t43 -15.5t55.5 -3v-37q-49 0 -86 1.5t-65.5 2.5t-54.5 2t-52 1q-29 0 -51.5 -1t-48 -2t-58.5 -2.5t-82 -1.5v37zM412 276q0 -100 57 -171.5t164 -71.5q61 0 102 33.5t67.5 90t38 129t11.5 150.5 q0 70 -9 142.5t-34 132t-69 97.5t-111 38q-94 0 -155.5 -64.5t-61.5 -193.5v-312z" />
<glyph unicode="q" horiz-adv-x="1161" d="M82 420q0 94 30.5 183t91 158.5t148.5 110.5t203 41q74 0 132 -21.5t114 -66.5l192 86v-1292q0 -41 10.5 -63.5t29 -35t43 -15.5t54.5 -3v-37q-49 0 -86.5 1.5t-67.5 2.5t-56.5 2t-53.5 1q-29 0 -50 -1t-46 -2t-56.5 -2.5t-80.5 -1.5v37q31 0 55.5 3t43 15.5t28.5 35 t10 63.5v471q-35 -51 -97.5 -83t-150.5 -32q-102 0 -184 38t-139.5 100.5t-87 142.5t-29.5 164zM328 438q0 -70 12 -142.5t40 -131t71 -95t106 -36.5q51 0 91 20.5t66.5 54t41 77.5t14.5 89v363q0 66 -15.5 108.5t-43 69.5t-63.5 37t-77 10q-70 0 -116.5 -40t-74.5 -102.5 t-40 -137t-12 -144.5z" />
<glyph unicode="r" horiz-adv-x="890" d="M66 0v37q31 0 55 3t42.5 15.5t29 35t10.5 63.5v526q0 80 -39 102.5t-98 22.5v37q35 4 77.5 11t85.5 16.5t84 21.5t74 27q12 -45 19.5 -99.5t9.5 -107.5q49 100 121.5 153.5t158.5 53.5q20 0 48 -4.5t52.5 -17.5t42 -35.5t17.5 -59.5q0 -29 -21.5 -51.5t-58.5 -22.5 q-31 0 -48 15.5t-26.5 34t-14.5 34.5t-9 20q-16 12 -41 13q-43 0 -81 -34t-67.5 -83t-46 -105.5t-16.5 -101.5v-366q0 -41 10 -63.5t28.5 -35t43 -15.5t55.5 -3v-37q-49 0 -84 1t-62.5 2t-51 2t-50.5 1q-29 0 -52 -1t-51 -2t-62.5 -2t-83.5 -1z" />
<glyph unicode="s" horiz-adv-x="780" d="M94 283h41q0 -51 17.5 -97.5t50.5 -82t79 -57t103 -21.5q31 0 59.5 8t51 25.5t36 44t13.5 63.5q0 35 -17.5 61.5t-46 48t-64.5 40t-73 38.5q-43 25 -87 51.5t-80 63.5t-57.5 85t-21.5 114q0 55 23.5 100t60.5 77t84 48t96 16q70 0 112 -15t73 -32l39 47h35 q0 -39 -1.5 -63.5t-1.5 -52.5q0 -29 1.5 -74t1.5 -86h-41q0 39 -13.5 80t-39 73.5t-65.5 54t-93 21.5q-66 0 -101 -29.5t-35 -76.5q0 -37 26 -68t64.5 -57.5t86 -49t88.5 -46.5q45 -27 84 -54.5t66.5 -61.5t44 -77t16.5 -98q0 -70 -30 -120t-75 -83t-101.5 -49.5 t-107.5 -16.5q-59 0 -120.5 17.5t-108.5 52.5l-33 -51h-37q0 45 1 75.5t1 65.5t-2 71t-2 77z" />
<glyph unicode="t" horiz-adv-x="665" d="M31 836v41q43 14 87 39.5t82 57.5t68.5 70.5t48.5 81.5h54v-239h213v-51h-213v-533q0 -47 2 -93t14 -83t40 -59.5t77 -22.5q53 0 82.5 23.5t52.5 58.5l27 -23q-25 -47 -80.5 -88t-143.5 -41q-152 0 -223.5 69t-71.5 192v600h-116z" />
<glyph unicode="u" horiz-adv-x="1189" d="M41 850v37q43 0 70.5 -1t49 -2t42 -2t49.5 -1t65.5 3t83.5 3v-598q0 -27 3.5 -69t18.5 -81t47 -66.5t87 -27.5q37 0 75 13.5t68.5 41t50 66.5t19.5 92v475q0 39 -10 62.5t-28.5 36t-43 15.5t-55.5 3v37q43 0 75.5 -1t58.5 -2t48.5 -2t44.5 -1q35 0 61.5 3t71.5 3v-627 q0 -100 37 -135t109 -35v-37q-27 -6 -70 -13t-91 -16.5t-93 -19.5t-76 -18q-10 27 -17.5 54.5t-15.5 68.5q-53 -74 -131 -104t-164 -30q-63 0 -118.5 17.5t-96.5 53.5t-64.5 92.5t-23.5 133.5v461q0 39 -10 62.5t-28.5 36t-43 15.5t-55.5 3z" />
<glyph unicode="v" horiz-adv-x="968" d="M-20 850v37q41 0 67.5 -1t49 -2t44 -2t52.5 -1t58.5 1t56 2t62 2t74.5 1v-37q-35 0 -64.5 -13.5t-29.5 -60.5q0 -12 4 -27.5t8 -25.5l205 -492l183 474q14 39 14 67q0 43 -29.5 60.5t-72.5 17.5v37q31 0 52 -1t38.5 -2t33 -2t31.5 -1t28.5 1t26 2t32 2t44.5 1v-37 q-94 0 -145 -139l-287 -752h-61l-299 700q-12 29 -28.5 63t-38 62.5t-49.5 47t-60 18.5z" />
<glyph unicode="w" horiz-adv-x="1458" d="M-20 852v37q84 0 136 -4t103 -4q27 0 49.5 1t48 3t55 3t72.5 1v-37q-41 0 -73.5 -15.5t-34.5 -62.5q0 -23 8 -47l172 -475l227 635h70l264 -647l160 454q14 43 14 74q0 51 -28.5 66.5t-77.5 17.5v37q55 0 87 -2t66 -2q33 0 59.5 2t80.5 2v-37q-43 0 -80 -33t-62 -104 l-262 -754h-71l-263 649l-235 -649h-72l-256 713q-10 31 -22.5 62.5t-29.5 57t-43 42t-62 16.5z" />
<glyph unicode="x" horiz-adv-x="1089" d="M20 0v37q61 0 107.5 23.5t97.5 82.5l213 250l-231 328q-20 29 -37.5 52.5t-39 40.5t-47.5 26.5t-60 9.5v37h68.5t50 -1t43 -1h48.5q53 0 119 1t152 1v-37q-35 0 -60.5 -7t-25.5 -38q0 -23 28 -64l136 -194l145 176q23 27 31 45t8 31q0 18 -10.5 28.5t-23.5 15.5t-29.5 6 t-28.5 1v37q63 0 92 -2t63 -2q20 0 36 1t33 1t40 1t53 1v-37q-53 -4 -96 -24.5t-84 -73.5l-201 -246l226 -318q45 -61 101 -106t122 -45v-37q-47 0 -76 1t-50.5 2t-41 2t-45.5 1q-57 0 -129 -3t-164 -3v37q29 0 59.5 6t30.5 37q0 12 -7 23.5t-20 29.5l-149 217l-170 -196 q-31 -37 -31 -66q0 -51 86 -51v-37q-61 0 -90 2t-63 2q-20 0 -37 -1t-37.5 -1t-45 -1t-59.5 -1z" />
<glyph unicode="y" horiz-adv-x="925" d="M-14 850v37q45 0 76.5 -1t57 -2t48 -2t47.5 -1q27 0 49.5 1t49 2t58 2t74.5 1v-37q-37 0 -68.5 -11.5t-31.5 -62.5q0 -10 5 -25.5t9 -27.5l191 -449l184 431q6 16 11.5 34.5t5.5 30.5q0 47 -27 62.5t-72 17.5v37q31 0 50.5 -1t35 -1t29.5 -1t31 -1q33 0 59.5 2t81.5 2 v-37q-55 -2 -88 -40t-64 -110l-454 -1050q-12 -29 -28.5 -64t-38 -65.5t-48 -51t-59.5 -20.5q-23 0 -42.5 15.5t-19.5 43.5q0 23 12.5 38.5t29 25.5t36 17.5t35.5 11.5t45 35.5t57 95.5l121 276l-284 662q-35 80 -69 130t-95 50z" />
<glyph unicode="z" horiz-adv-x="876" d="M41 0l494 842q-35 2 -63 3t-55.5 1h-56h-63.5q-86 0 -127 -56.5t-51 -130.5h-37l20 230q53 2 106.5 2h104.5q86 0 169 -2t169 -2q29 0 73 1t79 1l-486 -840q57 -2 123 -3t138 -1q92 0 140 61.5t56 145.5h37l-16 -250q-47 -2 -100.5 -2h-100.5h-96.5t-108.5 1t-108.5 1 h-96.5h-42.5t-43 -1t-36 -1h-21.5z" />
<glyph unicode="{" horiz-adv-x="937" d="M205 451v41h18q29 0 57.5 10t51 31.5t36 55.5t13.5 81v446q0 47 10 92t43 81t95.5 57.5t168.5 21.5h97v-43h-27q-106 0 -154.5 -60.5t-48.5 -183.5v-356q0 -29 -5 -66.5t-24.5 -73.5t-56.5 -68t-100 -48q63 -14 100 -44t56.5 -66.5t24.5 -74.5t5 -67v-356 q0 -127 50.5 -185.5t156.5 -58.5h23v-43h-97q-106 0 -168.5 21.5t-95.5 57.5t-43 81t-10 92v446q0 47 -13.5 81t-36 55.5t-51 32t-57.5 10.5h-18z" />
<glyph unicode="|" horiz-adv-x="825" d="M348 -426v1794h129v-1794h-129z" />
<glyph unicode="}" horiz-adv-x="937" d="M143 -383h23q106 0 156.5 58.5t50.5 185.5v356q0 29 5 67t24.5 74.5t56.5 66.5t100 44q-63 16 -100 48t-56.5 68t-24.5 73.5t-5 66.5v356q0 123 -48.5 183.5t-154.5 60.5h-27v43h97q106 0 168.5 -21.5t95.5 -57.5t43 -81t10 -92v-446q0 -47 13.5 -81t36 -55.5t51 -31.5 t57.5 -10h18v-41h-18q-59 0 -108.5 -42t-49.5 -137v-446q0 -47 -10 -92t-43 -81t-95.5 -57.5t-168.5 -21.5h-97v43z" />
<glyph unicode="~" horiz-adv-x="1103" d="M123 606q14 27 38.5 67t59.5 74.5t80 60.5t100 26q47 0 93.5 -15.5t90.5 -34t86 -34t81 -15.5q66 0 112.5 26.5t85.5 88.5l31 -25q-51 -106 -128 -164.5t-155 -58.5q-47 0 -93 14.5t-92 33t-91 32.5t-88 14q-47 0 -94 -22.5t-88 -93.5z" />
<glyph unicode="&#xa1;" horiz-adv-x="667" d="M205 -297q0 35 7 83t24 130l6 35q10 51 22 112.5t22.5 135t17.5 163t7 197.5v64h45v-64q0 -109 7.5 -198t17.5 -162.5t22.5 -135t22.5 -112.5l6 -35q16 -82 23.5 -130t7.5 -83q0 -41 -12.5 -70.5t-31 -48t-42 -27t-43.5 -8.5q-23 0 -45.5 8.5t-41 27t-30.5 48t-12 70.5z M209 852q0 51 37 87t86 36q53 0 90 -36t37 -87q0 -53 -37 -90t-90 -37q-49 0 -86 37t-37 90z" />
<glyph unicode="&#xa2;" horiz-adv-x="1034" d="M123 670q0 102 39 191t105.5 153.5t156.5 101.5t194 37q29 0 66 -6l96 239h70l-100 -253q53 -16 94 -50t41 -92q0 -33 -19.5 -59.5t-64.5 -26.5q-31 0 -53.5 25.5t-22.5 66.5q0 16 3 35t3 21q0 10 -6 16l-276 -698q63 -86 172 -86q49 0 91 11t75.5 29.5t58 40t43.5 42.5 l22 -21q-66 -86 -160 -126t-186 -40q-86 0 -166 29l-106 -273h-70l117 299q-98 53 -157.5 152t-59.5 242zM367 684q0 -141 41 -240l258 656q-25 6 -48 6q-72 0 -119.5 -37t-77.5 -96.5t-42 -135t-12 -153.5z" />
<glyph unicode="&#xa3;" horiz-adv-x="1148" d="M70 123q0 68 46 121t136 53q51 0 97 -15.5t85 -33.5q6 37 6 74q0 94 -31.5 183t-66.5 185h-211v60h195q-16 51 -34 126.5t-18 139.5q0 86 32 157.5t89.5 123t137 79t176.5 27.5q39 0 89 -9.5t94 -33t74.5 -60t30.5 -92.5q0 -53 -26.5 -73.5t-55.5 -20.5q-39 0 -60 24.5 t-21 65.5q0 31 8 48.5t8 23.5q0 14 -12.5 27.5t-33 24.5t-44.5 17.5t-49 6.5q-96 0 -146.5 -63.5t-50.5 -166.5q0 -53 18.5 -137t57.5 -235h270v-60h-258q10 -41 19.5 -96t9.5 -123q0 -72 -18.5 -135.5t-55.5 -128.5q55 -23 126 -37t144 -14q104 0 159.5 32.5t57.5 100.5h35 v-25q0 -53 -13 -104t-44 -93t-80 -68t-121 -26q-78 0 -156.5 32t-146.5 79l-29 20q-18 -23 -43.5 -47t-57.5 -43.5t-70.5 -32t-84.5 -12.5q-68 0 -115.5 43t-47.5 111zM131 125q0 -29 24.5 -61.5t77.5 -32.5q59 0 104.5 32t74.5 91q-66 45 -102 61t-64 16q-57 0 -86 -30.5 t-29 -75.5z" />
<glyph unicode="&#xa4;" horiz-adv-x="1220" d="M53 1186l64 63l178 -178q66 53 143.5 85t169.5 32q90 0 170 -32t144 -85l180 180l63 -63l-180 -178q51 -66 81 -144t30 -168q0 -88 -31 -165.5t-84 -143.5l182 -176l-63 -63l-180 178q-63 -53 -142.5 -83t-169.5 -30t-166.5 29.5t-142.5 81.5l-178 -179l-64 64l181 176 q-53 63 -84 142t-31 169t29.5 168t83.5 144zM248 700q0 -74 28.5 -139t77.5 -114.5t115 -78t139 -28.5q76 0 141.5 28.5t114.5 78t78 115t29 138.5q0 76 -29 141.5t-78 115t-114.5 78t-141.5 28.5q-74 0 -139.5 -28.5t-114.5 -78t-77.5 -115t-28.5 -141.5z" />
<glyph unicode="&#xa5;" horiz-adv-x="1251" d="M0 1333v37q117 0 184.5 -3t120.5 -3q27 0 53.5 1t58.5 2t70.5 2t94.5 1v-37q-37 0 -73 -12t-36 -61q0 -23 11.5 -50.5t23.5 -56.5l203 -457h32l224 453q14 29 23 52.5t9 49.5q0 45 -32.5 62.5t-85.5 19.5v37q43 0 70.5 -1t47 -2t36 -2t36.5 -1t35.5 1t34 2t44 2t66.5 1 v-37q-78 0 -119.5 -40t-76.5 -107l-242 -490h215v-59h-246l-18 -39v-88h264v-59h-264v-281q0 -43 13.5 -68.5t36 -40t52 -19.5t62.5 -5v-37q-61 0 -101.5 1t-71 2t-57 2t-59.5 1q-35 0 -65.5 -1t-66.5 -2t-81 -2t-107 -1v37q33 0 63 5t52.5 19.5t35.5 40t13 68.5v281h-276 v59h276v47l-37 80h-239v59h213l-213 469q-37 80 -83 124t-124 44z" />
<glyph unicode="&#xa6;" horiz-adv-x="825" d="M348 279h129v-705h-129v705zM348 662v706h129v-706h-129z" />
<glyph unicode="&#xa7;" horiz-adv-x="1097" d="M123 551q0 74 47 142.5t141 111.5q-66 63 -98.5 137t-32.5 145q0 61 23.5 118t69.5 100t113 68.5t155 25.5q61 0 123.5 -11.5t121.5 -52.5q35 -23 67 -64.5t32 -92.5q0 -45 -29 -87t-80 -42q-39 0 -64.5 25.5t-25.5 64.5q0 23 8 42t19.5 34.5t19.5 25.5t8 14q0 29 -52 61 t-144 32q-68 0 -114 -18.5t-73.5 -46.5t-39 -59.5t-11.5 -60.5q0 -45 27.5 -85t69.5 -72.5t89.5 -60t86.5 -48.5q66 -35 136 -76t127.5 -93t94.5 -119.5t37 -155.5q0 -47 -16.5 -87t-41 -72t-54 -56.5t-54.5 -42.5q20 -18 45 -46t45.5 -64t33.5 -79t13 -92 q0 -61 -25.5 -122.5t-76.5 -112t-127 -81t-174 -30.5q-80 0 -153 20.5t-142 67.5q-37 25 -70 68t-33 100q0 25 8.5 50.5t24 46t37 33.5t45.5 13q39 0 67.5 -25.5t28.5 -68.5q0 -29 -11 -49.5t-23.5 -35.5t-23.5 -24.5t-11 -15.5q0 -25 20.5 -47.5t55 -40.5t82 -29.5 t100.5 -11.5t102 15.5t87 42t60.5 64.5t22.5 85q0 49 -21.5 86t-59.5 69.5t-91 62.5t-117 62q-72 37 -143.5 77t-129.5 91.5t-95 119t-37 157.5zM248 637q0 -76 44 -116t101 -72l234 -134q49 -29 81.5 -50t55.5 -38q53 37 71.5 78t18.5 88q0 33 -15.5 59.5t-40 48t-55 40 t-59.5 34.5q-80 43 -131 72t-86 50.5t-59.5 38t-51.5 34.5q-59 -29 -83.5 -63.5t-24.5 -69.5z" />
<glyph unicode="&#xa8;" horiz-adv-x="751" d="M82 1227q0 49 35 85t84 36t85 -36t36 -85t-36 -84t-85 -35t-84 35t-35 84zM430 1227q0 49 35 85t84 36t85 -36t36 -85t-36 -84t-85 -35t-84 35t-35 84z" />
<glyph unicode="&#xa9;" horiz-adv-x="1615" d="M102 682q0 145 56.5 273t154 224.5t225.5 151.5t271 55t271 -55t224.5 -151.5t152.5 -224.5t56 -273t-56 -274t-152.5 -225.5t-224.5 -152t-271 -55.5t-271 55.5t-225.5 152t-154 224.5t-56.5 275zM190 682q0 -127 50.5 -239.5t135.5 -196.5t196.5 -133.5t236.5 -49.5 t236.5 49.5t195.5 133.5t134 196.5t50 239.5t-50 238.5t-134 195.5t-195.5 133t-236.5 49t-236.5 -48t-196.5 -132t-135.5 -196.5t-50.5 -239.5zM444 670q0 82 28 154.5t79 127t120.5 86t153.5 31.5q47 0 81 -8t59.5 -17.5t43 -17.5t33.5 -8q10 0 13.5 14.5t13.5 36.5h27 v-244h-27q-4 43 -23.5 78t-48 57.5t-64.5 35t-73 12.5t-74.5 -17.5t-68.5 -55.5t-50.5 -99.5t-19.5 -149.5q0 -98 20.5 -159.5t52.5 -97.5t68.5 -49t71.5 -13q55 0 113.5 24.5t113.5 89.5l23 -22q-20 -29 -49 -57.5t-63.5 -51t-77.5 -37t-93 -14.5q-84 0 -153.5 26.5 t-120.5 76t-80 118t-29 150.5z" />
<glyph unicode="&#xaa;" horiz-adv-x="696" d="M0 600v76h602v-76h-602zM23 944q0 43 26.5 75t66.5 55.5t86 42t83 34.5q33 14 57.5 27.5t24.5 23.5v8q0 68 -27 97.5t-84 29.5q-18 0 -37.5 -2t-36 -6t-28 -10t-11.5 -14q0 -2 5.5 -15.5t5.5 -34.5q0 -20 -14.5 -35.5t-39.5 -15.5q-16 0 -35.5 11.5t-19.5 54.5 q0 31 20.5 52t52.5 34.5t70.5 19.5t73.5 6q37 0 79 -6t78 -22.5t60.5 -46t24.5 -78.5v-279q0 -20 6 -48t37 -28q27 0 41 29l22 -12q-4 -6 -12 -20.5t-23.5 -30t-38 -26.5t-53.5 -11q-41 0 -72.5 24.5t-39.5 59.5q-45 -39 -87 -61.5t-112 -22.5q-55 0 -102 31.5t-47 109.5z M174 967q0 -33 17.5 -58.5t54.5 -25.5t67.5 17.5t53.5 39.5v203q-35 -20 -66 -34.5t-65 -37.5q-37 -23 -49.5 -47.5t-12.5 -56.5z" />
<glyph unicode="&#xab;" horiz-adv-x="1021" d="M123 457q23 18 69 51t98 74t102 85t83 81q10 10 17.5 13t13.5 3q18 0 18 -23q0 -18 -17.5 -45.5t-41 -58.5t-49 -59.5t-41.5 -49.5l-60 -71l60 -72q16 -20 41.5 -49t49 -59.5t41 -59.5t17.5 -47q0 -20 -20 -20q-4 0 -11.5 3t-17.5 13q-33 39 -84 83t-104.5 85t-98.5 73.5 t-65 49.5zM498 457q23 18 68.5 51t98 74t102.5 85t83 81q10 10 17 13t14 3q18 0 18 -23q0 -18 -17.5 -45.5t-41 -58.5t-49 -59.5t-41.5 -49.5l-60 -71l60 -72q16 -20 41.5 -49t49 -59.5t41 -59.5t17.5 -47q0 -20 -20 -20q-4 0 -11.5 3t-17.5 13q-33 39 -84 83t-104.5 85 t-98.5 73.5t-65 49.5z" />
<glyph unicode="&#xac;" horiz-adv-x="983" d="M61 543v94h861v-522h-228v428h-633z" />
<glyph unicode="&#xad;" horiz-adv-x="587" d="M82 473v121h424v-121h-424z" />
<glyph unicode="&#xae;" horiz-adv-x="1615" d="M102 684q0 145 56.5 273t154 224.5t225.5 152t271 55.5t271 -55.5t224.5 -152t152.5 -224.5t56 -273t-56 -274t-152.5 -225.5t-224.5 -152t-271 -55.5t-271 55.5t-225.5 152t-154 224.5t-56.5 275zM190 684q0 -127 50.5 -239.5t135.5 -196.5t196.5 -133t236.5 -49 t236.5 49t195.5 133t134 196.5t50 239.5t-50 238.5t-134 195.5t-195.5 133t-236.5 49t-236.5 -48t-196.5 -132t-135.5 -196.5t-50.5 -239.5zM449 1022v35h376q88 0 146.5 -14.5t92.5 -41t48 -61.5t14 -76q0 -86 -52 -133t-120 -59l156 -256q14 -23 43 -46.5t76 -23.5v-35 q-53 0 -81 1t-61 1q-23 0 -50 -1t-56 -1l-207 346h-45v-223q0 -47 19.5 -66.5t78.5 -19.5v-37q-61 0 -103 2t-83 2t-82 -2t-104 -2v37q59 0 75.5 20.5t16.5 65.5v492q0 47 -19.5 71.5t-78.5 24.5zM729 711h72q18 0 42.5 3t47 17t38 43t15.5 78q0 63 -29.5 107.5t-113.5 44.5 h-72v-293z" />
<glyph unicode="&#xaf;" horiz-adv-x="786" d="M123 1176v90h541v-90h-541z" />
<glyph unicode="&#xb0;" horiz-adv-x="681" d="M123 1239q0 96 61.5 158.5t153.5 62.5q96 0 158.5 -62.5t62.5 -158.5q0 -92 -62.5 -153.5t-158.5 -61.5q-92 0 -153.5 61.5t-61.5 153.5zM197 1241q0 -57 42 -99t101 -42q63 0 105 42t42 99q0 63 -42 105.5t-105 42.5q-59 0 -101 -42.5t-42 -105.5z" />
<glyph unicode="&#xb1;" horiz-adv-x="1171" d="M123 244v96h926v-96h-926zM125 805v98h410v385h100v-385h412v-98h-412v-385h-100v385h-410z" />
<glyph unicode="&#xb2;" horiz-adv-x="675" d="M0 545q35 55 66.5 95t66.5 77q74 74 127 128t88 101t52.5 95.5t17.5 113.5q0 76 -35 128t-117 52q-51 0 -90 -32.5t-39 -92.5q0 -51 29 -74.5t63 -23.5q53 0 82 39q-4 -66 -43 -99.5t-94 -33.5q-41 0 -70.5 14.5t-49 38t-29 50t-9.5 50.5q0 33 14.5 71t47.5 69.5t84 52 t123 20.5q78 0 135 -20.5t95 -53t56.5 -75.5t18.5 -88q0 -61 -23.5 -107.5t-64.5 -85.5t-95.5 -77.5t-115.5 -85.5q-33 -25 -50.5 -41.5t-50.5 -51.5h390l-45 -221h-37l4 58q0 8 -4 9t-9 1h-489z" />
<glyph unicode="&#xb3;" horiz-adv-x="675" d="M0 655q0 29 17.5 46.5t39.5 17.5q31 0 47.5 -16.5t24.5 -38t11 -41t10 -23.5q27 -20 79 -20q49 0 79 20.5t47.5 51t22.5 67.5t5 67q0 94 -23.5 136.5t-64.5 42.5q-25 0 -45.5 -13.5t-38.5 -29t-34.5 -28.5t-35.5 -13q-16 0 -24 10t-8 24q0 20 24.5 37t46.5 29 q27 14 56.5 31.5t52 43t38 60.5t15.5 84q0 57 -23.5 94t-76.5 37q-47 0 -73 -27.5t-26 -68.5q0 -29 19.5 -51.5t48.5 -22.5t42 6.5t30 22.5q-10 -45 -43 -74t-78 -29q-61 0 -97 35t-36 82q0 37 18.5 70t52 57.5t79.5 38.5t102 14q111 0 167 -47t56 -118q0 -47 -21.5 -81 t-51.5 -58.5t-61.5 -40t-52.5 -23.5h15q45 0 86 -13.5t73.5 -38t52 -62.5t19.5 -87q0 -72 -30.5 -125t-81 -90t-115 -55.5t-129.5 -18.5q-25 0 -60.5 5.5t-67.5 19.5t-55.5 39.5t-23.5 64.5z" />
<glyph unicode="&#xb4;" horiz-adv-x="684" d="M133 1055l281 317q20 20 38.5 31.5t43.5 11.5q29 0 47 -19.5t18 -43.5q0 -43 -29.5 -69t-60.5 -46l-289 -182h-49z" />
<glyph unicode="&#xb5;" horiz-adv-x="1132" d="M82 -262q0 18 4 40.5t10 60.5t15.5 96.5t19.5 148.5q14 127 19.5 234.5t5.5 232.5v387h206v-635q0 -43 2.5 -86t14.5 -77t39.5 -54t77.5 -20q66 0 119 38.5t85 79.5v754h209v-698q0 -18 1 -43t7.5 -48.5t18.5 -40t37 -16.5q10 0 24.5 2t36.5 10l17 7v-37 q-72 -37 -117 -56.5t-71.5 -28.5t-38 -11.5t-13.5 -2.5q-43 0 -71.5 43t-32.5 95q-72 -82 -129.5 -113t-124.5 -31q-106 0 -173 50.5t-83 127.5v-63q0 -35 4 -76t10 -65q16 -74 30.5 -118t14.5 -93t-25.5 -78t-60.5 -29t-61.5 30t-26.5 83z" />
<glyph unicode="&#xb6;" horiz-adv-x="1101" d="M72 967q0 59 16 128.5t60.5 129t123 99.5t201.5 40h445v-37q-33 0 -63 -5t-52.5 -19.5t-35.5 -40t-13 -68.5v-1434q0 -43 13 -68.5t35.5 -39.5t52.5 -19.5t63 -5.5v-37h-283v1719h-98v-1719h-283v37q33 0 62.5 5.5t52 19.5t36 39.5t13.5 68.5v861q-41 0 -99.5 13 t-113.5 51t-94 105.5t-39 176.5z" />
<glyph unicode="&#xb7;" horiz-adv-x="526" d="M143 453q0 51 35 85.5t84 34.5q51 0 86 -34.5t35 -85.5q0 -49 -35 -84t-86 -35q-49 0 -84 35t-35 84z" />
<glyph unicode="&#xb8;" horiz-adv-x="442" d="M55 -213q0 23 12.5 38t34.5 15q16 0 30.5 -10t21.5 -27q8 -23 8 -38t4 -19q18 -18 51 -18q37 0 56.5 25.5t19.5 56.5q0 90 -103 92q-6 0 -28.5 -1t-40.5 -5l37 104h59l-16 -47h8q96 0 143 -40t47 -93t-45 -96t-135 -43q-63 0 -113.5 28.5t-50.5 77.5z" />
<glyph unicode="&#xb9;" horiz-adv-x="675" d="M0 1298v35q106 10 184 27.5t138 44.5v-668q0 -39 2 -67.5t13 -48t35.5 -28.5t69.5 -9v-39q-90 0 -132 2t-77 2q-20 0 -37.5 -1t-40 -1t-53 -1t-75.5 -1v39q43 0 67.5 9t36.5 28.5t15.5 48t3.5 67.5v424q0 49 -2.5 77t-13.5 41t-34.5 16t-64.5 3h-35z" />
<glyph unicode="&#xba;" horiz-adv-x="696" d="M0 604v72h621v-72h-621zM2 1100q0 66 25.5 118t68.5 88.5t98.5 56t114.5 19.5q61 0 116.5 -19.5t98.5 -56t68.5 -89.5t25.5 -121t-24.5 -122t-67.5 -92t-99 -58.5t-118 -20.5q-61 0 -117.5 21.5t-98.5 60.5t-66.5 93t-24.5 122zM174 1104q0 -74 12.5 -122t32 -75.5 t42 -39t44.5 -11.5q25 0 50.5 10.5t45 36t31.5 70t12 114.5t-12 117t-32.5 75t-44 39t-44.5 11q-18 0 -41.5 -8t-45 -32.5t-36 -68.5t-14.5 -116z" />
<glyph unicode="&#xbb;" horiz-adv-x="1021" d="M123 170q0 18 17.5 47t41 59.5t49 59.5t41.5 49l60 72l-60 71q-16 20 -41.5 49t-49 60t-41 58.5t-17.5 45.5q0 23 18 23q6 0 13.5 -3t17.5 -13q33 -37 83 -81t102.5 -85t98.5 -74t68 -51q-20 -16 -65 -49t-98.5 -74t-104.5 -85t-84 -83q-10 -10 -17.5 -13t-11.5 -3 q-20 0 -20 20zM498 170q0 18 17 47t41 59.5t49.5 59.5t41.5 49l60 72l-60 71q-16 20 -41.5 49t-49.5 60t-41 58.5t-17 45.5q0 23 18 23q6 0 13.5 -3t17.5 -13q33 -37 83 -81t102 -85t98.5 -74t68.5 -51q-20 -16 -65.5 -49t-98.5 -74t-104 -85t-84 -83q-10 -10 -17.5 -13 t-11.5 -3q-20 0 -20 20z" />
<glyph unicode="&#xbc;" horiz-adv-x="1617" d="M0 1298v35q106 10 184 27.5t138 44.5v-668q0 -39 2 -67.5t13 -48t35.5 -28.5t69.5 -9v-39q-90 0 -132 2t-77 2q-20 0 -37.5 -1t-40 -1t-53 -1t-75.5 -1v39q43 0 67.5 9t36.5 28.5t15.5 48t3.5 67.5v424q0 49 -2.5 77t-13.5 41t-34.5 16t-64.5 3h-35zM258 -33l850 1434h82 l-852 -1434h-80zM913 252v63l408 529h59v-527h136v-65h-136v-59q0 -39 2 -68t13.5 -48.5t36 -28.5t69.5 -9v-39q-90 0 -130 3t-75 3q-20 0 -37.5 -1t-39 -2t-51 -2t-74.5 -1v39q43 0 67.5 9t36.5 28.5t15.5 48.5t3.5 68v59h-304zM973 317h244v308z" />
<glyph unicode="&#xbd;" horiz-adv-x="1617" d="M0 1298v35q106 10 184 27.5t138 44.5v-668q0 -39 2 -67.5t13 -48t35.5 -28.5t69.5 -9v-39q-90 0 -132 2t-77 2q-20 0 -37.5 -1t-40 -1t-53 -1t-75.5 -1v39q43 0 67.5 9t36.5 28.5t15.5 48t3.5 67.5v424q0 49 -2.5 77t-13.5 41t-34.5 16t-64.5 3h-35zM258 -33l850 1434h82 l-852 -1434h-80zM922 0q35 55 66.5 95t66.5 77q74 74 127 128t88 101.5t52 95.5t17 113q0 76 -34.5 128.5t-116.5 52.5q-51 0 -90 -33t-39 -92q0 -51 28.5 -75t63.5 -24q53 0 82 39q-4 -66 -43 -99.5t-94 -33.5q-41 0 -71 14.5t-49.5 38t-28.5 50t-9 51.5q0 33 14.5 70.5 t47 69.5t84 52.5t122.5 20.5q78 0 135.5 -20.5t95.5 -53.5t56 -76t18 -88q0 -61 -23.5 -107t-64.5 -85t-95 -78t-116 -86q-33 -25 -50 -41.5t-50 -50.5h389l-45 -222h-37l4 58q0 8 -4 9t-8 1h-489z" />
<glyph unicode="&#xbe;" horiz-adv-x="1617" d="M0 655q0 29 17.5 46.5t39.5 17.5q31 0 47.5 -16.5t24.5 -38t11 -41t10 -23.5q27 -20 79 -20q49 0 79 20.5t47.5 51t22.5 67.5t5 67q0 94 -23.5 136.5t-64.5 42.5q-25 0 -45.5 -13.5t-38.5 -29t-34.5 -28.5t-35.5 -13q-16 0 -24 10t-8 24q0 20 24.5 37t46.5 29 q27 14 56.5 31.5t52 43t38 60.5t15.5 84q0 57 -23.5 94t-76.5 37q-47 0 -73 -27.5t-26 -68.5q0 -29 19.5 -51.5t48.5 -22.5t42 6.5t30 22.5q-10 -45 -43 -74t-78 -29q-61 0 -97 35t-36 82q0 37 18.5 70t52 57.5t79.5 38.5t102 14q111 0 167 -47t56 -118q0 -47 -21.5 -81 t-51.5 -58.5t-61.5 -40t-52.5 -23.5h15q45 0 86 -13.5t73.5 -38t52 -62.5t19.5 -87q0 -72 -30.5 -125t-81 -90t-115 -55.5t-129.5 -18.5q-25 0 -60.5 5.5t-67.5 19.5t-55.5 39.5t-23.5 64.5zM319 -33l850 1434h82l-852 -1434h-80zM975 252v63l407 529h60v-527h135v-65h-135 v-59q0 -39 2 -68t13 -48.5t36 -28.5t70 -9v-39q-90 0 -130 3t-75 3q-20 0 -37.5 -1t-39 -2t-51.5 -2t-75 -1v39q43 0 67.5 9t37 28.5t15.5 48.5t3 68v59h-303zM1034 317h244v308z" />
<glyph unicode="&#xbf;" horiz-adv-x="819" d="M123 51q0 166 88 268.5t262 102.5h28.5t28.5 -2v192h56v-411h-86q-57 0 -113.5 -7.5t-100.5 -30t-71 -64.5t-27 -111q0 -53 21.5 -108.5t58.5 -100.5t88.5 -74t110.5 -29q18 0 35 7q2 2 14 12t29.5 21.5t40 20.5t47.5 9q35 0 64.5 -22.5t29.5 -71.5q0 -31 -14.5 -51.5 t-36 -33.5t-48 -18.5t-53.5 -5.5q-70 0 -140.5 35t-123.5 80q-82 70 -135 175.5t-53 217.5zM430 852q0 51 37 87t90 36q49 0 86 -36t37 -87q0 -53 -37 -90t-86 -37q-53 0 -90 37t-37 90z" />
<glyph unicode="&#xc0;" horiz-adv-x="1390" d="M-10 0v37q154 0 211 153l452 1207h72l479 -1204q35 -90 79 -123t118 -33v-37q-61 0 -105.5 1t-79 2t-64.5 2t-60 1q-31 0 -56.5 -1t-58.5 -2t-76 -2t-108 -1v37q25 0 48 3t41.5 12t31 25.5t12.5 43.5q0 23 -6.5 44t-14.5 42l-125 332h-387l-127 -346q-6 -18 -10 -36 t-4 -32q0 -29 11 -46.5t29.5 -26.5t41 -12t45.5 -3v-37q-43 0 -73 1t-52.5 2t-40.5 2t-39 1q-23 0 -38 -1t-33.5 -2t-45 -2t-67.5 -1zM242 1763q0 35 20.5 54.5t51.5 19.5q23 0 40 -10t35 -27l340 -315h-32l-336 166q-20 10 -42 20t-38.5 22.5t-27.5 29t-11 40.5zM416 596 h344l-174 459z" />
<glyph unicode="&#xc1;" horiz-adv-x="1390" d="M-10 0v37q154 0 211 153l452 1207h72l479 -1204q35 -90 79 -123t118 -33v-37q-61 0 -105.5 1t-79 2t-64.5 2t-60 1q-31 0 -56.5 -1t-58.5 -2t-76 -2t-108 -1v37q25 0 48 3t41.5 12t31 25.5t12.5 43.5q0 23 -6.5 44t-14.5 42l-125 332h-387l-127 -346q-6 -18 -10 -36 t-4 -32q0 -29 11 -46.5t29.5 -26.5t41 -12t45.5 -3v-37q-43 0 -73 1t-52.5 2t-40.5 2t-39 1q-23 0 -38 -1t-33.5 -2t-45 -2t-67.5 -1zM416 596h344l-174 459zM631 1485l340 315q10 8 18 16.5t27 14.5q18 6 41 6q29 0 45 -22.5t16 -51.5q0 -25 -11 -41t-27.5 -28.5t-38 -22.5 t-42.5 -20l-335 -166h-33z" />
<glyph unicode="&#xc2;" horiz-adv-x="1390" d="M-10 0v37q154 0 211 153l452 1207h72l479 -1204q35 -90 79 -123t118 -33v-37q-61 0 -105.5 1t-79 2t-64.5 2t-60 1q-31 0 -56.5 -1t-58.5 -2t-76 -2t-108 -1v37q25 0 48 3t41.5 12t31 25.5t12.5 43.5q0 23 -6.5 44t-14.5 42l-125 332h-387l-127 -346q-6 -18 -10 -36 t-4 -32q0 -29 11 -46.5t29.5 -26.5t41 -12t45.5 -3v-37q-43 0 -73 1t-52.5 2t-40.5 2t-39 1q-23 0 -38 -1t-33.5 -2t-45 -2t-67.5 -1zM322 1485l307 332h90l305 -332h-73l-277 172l-278 -172h-74zM416 596h344l-174 459z" />
<glyph unicode="&#xc3;" horiz-adv-x="1390" d="M-10 0v37q154 0 211 153l452 1207h72l479 -1204q35 -90 79 -123t118 -33v-37q-61 0 -105.5 1t-79 2t-64.5 2t-60 1q-31 0 -56.5 -1t-58.5 -2t-76 -2t-108 -1v37q25 0 48 3t41.5 12t31 25.5t12.5 43.5q0 23 -6.5 44t-14.5 42l-125 332h-387l-127 -346q-6 -18 -10 -36 t-4 -32q0 -29 11 -46.5t29.5 -26.5t41 -12t45.5 -3v-37q-43 0 -73 1t-52.5 2t-40.5 2t-39 1q-23 0 -38 -1t-33.5 -2t-45 -2t-67.5 -1zM363 1550q14 88 62 150.5t136 62.5q37 0 80 -16t85 -34.5t81 -35t70 -16.5t51.5 21.5t30.5 70.5h39q-6 -43 -19.5 -83t-35 -69.5 t-53.5 -48t-75 -18.5q-45 0 -88 16.5t-84 35t-77.5 34.5t-67.5 16q-35 0 -60.5 -24.5t-31.5 -61.5h-43zM416 596h344l-174 459z" />
<glyph unicode="&#xc4;" horiz-adv-x="1390" d="M-10 0v37q154 0 211 153l452 1207h72l479 -1204q35 -90 79 -123t118 -33v-37q-61 0 -105.5 1t-79 2t-64.5 2t-60 1q-31 0 -56.5 -1t-58.5 -2t-76 -2t-108 -1v37q25 0 48 3t41.5 12t31 25.5t12.5 43.5q0 23 -6.5 44t-14.5 42l-125 332h-387l-127 -346q-6 -18 -10 -36 t-4 -32q0 -29 11 -46.5t29.5 -26.5t41 -12t45.5 -3v-37q-43 0 -73 1t-52.5 2t-40.5 2t-39 1q-23 0 -38 -1t-33.5 -2t-45 -2t-67.5 -1zM375 1659q0 51 36 88t85 37q51 0 88 -37t37 -88q0 -49 -37 -85t-88 -36q-49 0 -85 36t-36 85zM416 596h344l-174 459zM739 1659 q0 51 36 88t87 37t87 -37t36 -88q0 -49 -35.5 -85t-87.5 -36q-51 0 -87 36t-36 85z" />
<glyph unicode="&#xc5;" horiz-adv-x="1390" d="M-10 0v37q154 0 211 153l452 1207h72l479 -1204q35 -90 79 -123t118 -33v-37q-61 0 -105.5 1t-79 2t-64.5 2t-60 1q-31 0 -56.5 -1t-58.5 -2t-76 -2t-108 -1v37q25 0 48 3t41.5 12t31 25.5t12.5 43.5q0 23 -6.5 44t-14.5 42l-125 332h-387l-127 -346q-6 -18 -10 -36 t-4 -32q0 -29 11 -46.5t29.5 -26.5t41 -12t45.5 -3v-37q-43 0 -73 1t-52.5 2t-40.5 2t-39 1q-23 0 -38 -1t-33.5 -2t-45 -2t-67.5 -1zM416 596h344l-174 459zM488 1651q0 78 53 128t137 50q86 0 140.5 -50t54.5 -128t-54.5 -128t-140.5 -50q-84 0 -137 50t-53 128zM555 1651 q0 -55 40 -88t85 -33q47 0 87 33t40 88t-40 88t-87 33q-45 0 -85 -33t-40 -88z" />
<glyph unicode="&#xc6;" horiz-adv-x="1851" d="M-25 0v37q78 0 127.5 40t87.5 113l541 1024q8 16 13.5 31t5.5 31q0 20 -15.5 32.5t-39 17.5t-53.5 6t-56 1v37q61 0 107 -1t87 -2t81 -2t89 -1q39 0 80 2t91 4t116 4t152 2q80 0 148.5 -2t150.5 -4l12 -305h-37q-6 78 -31.5 128t-68.5 78.5t-101.5 39t-130.5 10.5 q-35 0 -81 -3t-74 -7q-47 -6 -48 -56v-516h119q92 0 132 47.5t40 131.5h37q0 -47 -1 -80t-2 -56.5t-2 -40t-1 -32.5t1 -31.5t2 -38.5t2 -54.5t1 -78.5h-37q0 80 -40 127t-132 47h-119v-412q0 -74 11.5 -118t41 -65.5t82 -27.5t134.5 -6q74 0 136 9.5t110.5 38t79 83 t38.5 144.5h39l-16 -326q-92 -2 -168 -3t-160 -1q-174 0 -296 5t-187 5q-33 0 -60.5 -1t-60.5 -2t-75 -2t-103 -1v37q33 0 62.5 5t52 19.5t36 40t13.5 68.5v496h-334l-248 -473q-18 -37 -18 -66q0 -53 36.5 -70.5t90.5 -19.5v-37q-78 0 -119 3t-80 3q-23 0 -40 -1t-36.5 -2 t-47.5 -2t-67 -1zM535 723h303v567z" />
<glyph unicode="&#xc7;" horiz-adv-x="1413" d="M92 688q0 145 57.5 273.5t157 224.5t232.5 152.5t286 56.5q111 0 207 -32t185 -91l34 69h37q0 -49 -1 -94t-1 -90q0 -49 3 -112.5t3 -118.5h-41q-12 188 -115.5 300.5t-289.5 112.5q-88 0 -167 -42t-139.5 -126t-95 -209.5t-34.5 -293.5q0 -94 16 -206t61 -207 t127 -158.5t211 -63.5q209 0 322 124t123 332h41q0 -31 -1 -66.5t-2 -70.5t-2 -65.5t-1 -48.5v-39t1 -41.5t2 -53t3 -75.5h-37l-47 80q-18 -14 -54 -37t-86.5 -44.5t-117 -37t-146.5 -15.5h-28l-15 -51h13q117 0 178 -44t61 -120q0 -66 -56 -111.5t-163 -45.5 q-80 0 -140.5 32.5t-60.5 92.5q0 25 15.5 41t38.5 16q27 0 41 -14.5t20 -33t9 -35.5t7 -24q18 -20 60 -20q47 0 70.5 33t23.5 67q0 41 -29.5 74t-99.5 33q-29 0 -80 -15l35 132q-135 12 -250 64t-200 141t-133 215t-48 286z" />
<glyph unicode="&#xc8;" horiz-adv-x="1253" d="M76 0v37q33 0 62.5 5t52 19.5t36 40t13.5 68.5v1030q0 43 -13.5 68.5t-36 40t-52 19.5t-62.5 5v37q61 0 104 -1t76 -2t61.5 -2t61.5 -1q70 0 179.5 6t232.5 6q80 0 148.5 -2t150.5 -4l12 -305h-37q-6 78 -31.5 128t-68.5 78.5t-101.5 39t-130.5 10.5q-35 0 -81 -3t-74 -7 q-47 -6 -48 -56v-516h119q92 0 132 47.5t40 131.5h37q0 -47 -1 -80t-2 -56.5t-2 -40t-1 -32.5t1 -31.5t2 -38.5t2 -54.5t1 -78.5h-37q0 80 -40 127t-132 47h-119v-412q0 -74 10.5 -118t40 -65.5t82 -27.5t136.5 -6q74 0 136 9.5t110.5 38t79 83t38.5 144.5h39l-16 -326 q-92 -2 -168 -3t-160 -1q-174 0 -290.5 5t-182.5 5q-33 0 -62.5 -1t-63.5 -2t-78 -2t-105 -1zM307 1763q0 35 20.5 54.5t51.5 19.5q23 0 40 -10t35 -27l340 -315h-32l-336 166q-20 10 -42 20t-38.5 22.5t-27.5 29t-11 40.5z" />
<glyph unicode="&#xc9;" horiz-adv-x="1253" d="M76 0v37q33 0 62.5 5t52 19.5t36 40t13.5 68.5v1030q0 43 -13.5 68.5t-36 40t-52 19.5t-62.5 5v37q61 0 104 -1t76 -2t61.5 -2t61.5 -1q70 0 179.5 6t232.5 6q80 0 148.5 -2t150.5 -4l12 -305h-37q-6 78 -31.5 128t-68.5 78.5t-101.5 39t-130.5 10.5q-35 0 -81 -3t-74 -7 q-47 -6 -48 -56v-516h119q92 0 132 47.5t40 131.5h37q0 -47 -1 -80t-2 -56.5t-2 -40t-1 -32.5t1 -31.5t2 -38.5t2 -54.5t1 -78.5h-37q0 80 -40 127t-132 47h-119v-412q0 -74 10.5 -118t40 -65.5t82 -27.5t136.5 -6q74 0 136 9.5t110.5 38t79 83t38.5 144.5h39l-16 -326 q-92 -2 -168 -3t-160 -1q-174 0 -290.5 5t-182.5 5q-33 0 -62.5 -1t-63.5 -2t-78 -2t-105 -1zM492 1485l340 315q10 8 18 16.5t27 14.5q18 6 41 6q29 0 45 -22.5t16 -51.5q0 -25 -11 -41t-27.5 -28.5t-38 -22.5t-42.5 -20l-335 -166h-33z" />
<glyph unicode="&#xca;" horiz-adv-x="1253" d="M76 0v37q33 0 62.5 5t52 19.5t36 40t13.5 68.5v1030q0 43 -13.5 68.5t-36 40t-52 19.5t-62.5 5v37q61 0 104 -1t76 -2t61.5 -2t61.5 -1q70 0 179.5 6t232.5 6q80 0 148.5 -2t150.5 -4l12 -305h-37q-6 78 -31.5 128t-68.5 78.5t-101.5 39t-130.5 10.5q-35 0 -81 -3t-74 -7 q-47 -6 -48 -56v-516h119q92 0 132 47.5t40 131.5h37q0 -47 -1 -80t-2 -56.5t-2 -40t-1 -32.5t1 -31.5t2 -38.5t2 -54.5t1 -78.5h-37q0 80 -40 127t-132 47h-119v-412q0 -74 10.5 -118t40 -65.5t82 -27.5t136.5 -6q74 0 136 9.5t110.5 38t79 83t38.5 144.5h39l-16 -326 q-92 -2 -168 -3t-160 -1q-174 0 -290.5 5t-182.5 5q-33 0 -62.5 -1t-63.5 -2t-78 -2t-105 -1zM322 1485l307 332h90l305 -332h-73l-277 172l-278 -172h-74z" />
<glyph unicode="&#xcb;" horiz-adv-x="1253" d="M76 0v37q33 0 62.5 5t52 19.5t36 40t13.5 68.5v1030q0 43 -13.5 68.5t-36 40t-52 19.5t-62.5 5v37q61 0 104 -1t76 -2t61.5 -2t61.5 -1q70 0 179.5 6t232.5 6q80 0 148.5 -2t150.5 -4l12 -305h-37q-6 78 -31.5 128t-68.5 78.5t-101.5 39t-130.5 10.5q-35 0 -81 -3t-74 -7 q-47 -6 -48 -56v-516h119q92 0 132 47.5t40 131.5h37q0 -47 -1 -80t-2 -56.5t-2 -40t-1 -32.5t1 -31.5t2 -38.5t2 -54.5t1 -78.5h-37q0 80 -40 127t-132 47h-119v-412q0 -74 10.5 -118t40 -65.5t82 -27.5t136.5 -6q74 0 136 9.5t110.5 38t79 83t38.5 144.5h39l-16 -326 q-92 -2 -168 -3t-160 -1q-174 0 -290.5 5t-182.5 5q-33 0 -62.5 -1t-63.5 -2t-78 -2t-105 -1zM369 1659q0 51 36 88t85 37q51 0 88 -37t37 -88q0 -49 -37 -85t-88 -36q-49 0 -85 36t-36 85zM733 1659q0 51 36 88t87 37t87 -37t36 -88q0 -49 -35.5 -85t-87.5 -36 q-51 0 -87 36t-36 85z" />
<glyph unicode="&#xcc;" horiz-adv-x="770" d="M-61 1763q0 35 20.5 54.5t51.5 19.5q23 0 40 -10t35 -27l340 -315h-32l-336 166q-20 10 -42 20t-38.5 22.5t-27.5 29t-11 40.5zM76 0v37q33 0 62.5 5t52 19.5t36 40t13.5 68.5v1030q0 43 -13.5 68.5t-36 40t-52 19.5t-62.5 5v37q61 0 103 -1t74 -3t59.5 -3t62.5 -1 q33 0 64.5 1t67.5 3t81 3t106 1v-37q-33 0 -62.5 -5t-52 -19.5t-36 -40t-13.5 -68.5v-1030q0 -43 13.5 -68.5t36 -40t52.5 -19.5t62 -5v-37q-61 0 -106 1t-81 3t-67.5 3t-64.5 1q-35 0 -62.5 -1t-59.5 -3t-74 -3t-103 -1z" />
<glyph unicode="&#xcd;" horiz-adv-x="770" d="M76 0v37q33 0 62.5 5t52 19.5t36 40t13.5 68.5v1030q0 43 -13.5 68.5t-36 40t-52 19.5t-62.5 5v37q61 0 103 -1t74 -3t59.5 -3t62.5 -1q33 0 64.5 1t67.5 3t81 3t106 1v-37q-33 0 -62.5 -5t-52 -19.5t-36 -40t-13.5 -68.5v-1030q0 -43 13.5 -68.5t36 -40t52.5 -19.5 t62 -5v-37q-61 0 -106 1t-81 3t-67.5 3t-64.5 1q-35 0 -62.5 -1t-59.5 -3t-74 -3t-103 -1zM168 1485l340 315q10 8 18 16.5t27 14.5q18 6 41 6q29 0 45 -22.5t16 -51.5q0 -25 -11 -41t-27.5 -28.5t-38 -22.5t-42.5 -20l-335 -166h-33z" />
<glyph unicode="&#xce;" horiz-adv-x="770" d="M-6 1485l307 332h90l305 -332h-73l-277 172l-278 -172h-74zM76 0v37q33 0 62.5 5t52 19.5t36 40t13.5 68.5v1030q0 43 -13.5 68.5t-36 40t-52 19.5t-62.5 5v37q61 0 103 -1t74 -3t59.5 -3t62.5 -1q33 0 64.5 1t67.5 3t81 3t106 1v-37q-33 0 -62.5 -5t-52 -19.5t-36 -40 t-13.5 -68.5v-1030q0 -43 13.5 -68.5t36 -40t52.5 -19.5t62 -5v-37q-61 0 -106 1t-81 3t-67.5 3t-64.5 1q-35 0 -62.5 -1t-59.5 -3t-74 -3t-103 -1z" />
<glyph unicode="&#xcf;" horiz-adv-x="770" d="M41 1659q0 51 36 88t85 37q51 0 88 -37t37 -88q0 -49 -37 -85t-88 -36q-49 0 -85 36t-36 85zM76 0v37q33 0 62.5 5t52 19.5t36 40t13.5 68.5v1030q0 43 -13.5 68.5t-36 40t-52 19.5t-62.5 5v37q61 0 103 -1t74 -3t59.5 -3t62.5 -1q33 0 64.5 1t67.5 3t81 3t106 1v-37 q-33 0 -62.5 -5t-52 -19.5t-36 -40t-13.5 -68.5v-1030q0 -43 13.5 -68.5t36 -40t52.5 -19.5t62 -5v-37q-61 0 -106 1t-81 3t-67.5 3t-64.5 1q-35 0 -62.5 -1t-59.5 -3t-74 -3t-103 -1zM405 1659q0 51 36 88t87 37t87 -37t36 -88q0 -49 -35.5 -85t-87.5 -36q-51 0 -87 36 t-36 85z" />
<glyph unicode="&#xd0;" horiz-adv-x="1527" d="M76 0v37q33 0 62.5 5t52 19.5t36 40t13.5 68.5v512h-164v59h164v459q0 43 -13.5 68.5t-36 40t-52 19.5t-62.5 5v37q61 0 103 -1t75 -2t60.5 -2t62.5 -1q33 0 74 2t85 4t87 4t79 2q156 0 290 -44t232.5 -131t155 -214t56.5 -293q0 -344 -184.5 -521t-528.5 -177 q-37 0 -82 2t-91 3t-91 3t-82 2q-35 0 -62.5 -1t-59.5 -2t-74 -2t-105 -1zM530 266q0 -59 5.5 -99t24 -66.5t56 -38t103.5 -11.5q119 0 196.5 55.5t122.5 143.5t62.5 198.5t17.5 221.5q0 106 -17.5 222t-65.5 210t-132 155.5t-215 61.5q-29 0 -49.5 -1t-52.5 -5 q-25 -4 -40.5 -18.5t-15.5 -51.5v-502h301v-59h-301v-416z" />
<glyph unicode="&#xd1;" horiz-adv-x="1548" d="M66 1333v37q37 0 63.5 -1t48 -2t38.5 -2t40 -1q41 0 102.5 3t110.5 3l791 -969v799q0 43 -13.5 68.5t-36 40t-52.5 19.5t-62 5v37q41 0 66.5 -1t44 -2t34.5 -2t39 -1t42 1t40.5 2t50.5 2t70 1v-37q-33 0 -62.5 -5t-52 -19.5t-36 -40t-13.5 -68.5v-1225h-64l-936 1158 v-963q0 -43 13.5 -68.5t36 -40t52.5 -19.5t62 -5v-37q-41 0 -69.5 1t-51 2t-42 2t-41.5 1q-23 0 -39.5 -1t-35 -2t-43 -2t-65.5 -1v37q33 0 62.5 5t52 19.5t36 40t13.5 68.5v1026l-45 57q-29 37 -62.5 58.5t-86.5 21.5zM508 1550q14 88 62 150.5t136 62.5q37 0 80 -16 t85 -34.5t81 -35t70 -16.5t51.5 21.5t30.5 70.5h39q-6 -43 -19.5 -83t-35 -69.5t-53.5 -48t-75 -18.5q-45 0 -88 16.5t-84 35t-77.5 34.5t-67.5 16q-35 0 -60.5 -24.5t-31.5 -61.5h-43z" />
<glyph unicode="&#xd2;" horiz-adv-x="1662" d="M92 686q0 156 56.5 286t155.5 224t235.5 146.5t294.5 52.5q147 0 280 -50.5t234.5 -143.5t162 -225t60.5 -294q0 -166 -60.5 -297t-162 -223t-234.5 -141.5t-280 -49.5q-158 0 -293 50.5t-234.5 143.5t-157 225t-57.5 296zM410 682q0 -137 25.5 -256t77.5 -207t132 -139 t189 -51q104 0 183 51t131 139t78.5 207t26.5 256q0 131 -26.5 251t-78.5 210t-131 143t-183 53q-109 0 -189 -55t-132 -146t-77.5 -210t-25.5 -246zM485 1763q0 35 20.5 54.5t51.5 19.5q23 0 40 -10t35 -27l340 -315h-32l-336 166q-20 10 -42 20t-38.5 22.5t-27.5 29 t-11 40.5z" />
<glyph unicode="&#xd3;" horiz-adv-x="1662" d="M92 686q0 156 56.5 286t155.5 224t235.5 146.5t294.5 52.5q147 0 280 -50.5t234.5 -143.5t162 -225t60.5 -294q0 -166 -60.5 -297t-162 -223t-234.5 -141.5t-280 -49.5q-158 0 -293 50.5t-234.5 143.5t-157 225t-57.5 296zM410 682q0 -137 25.5 -256t77.5 -207t132 -139 t189 -51q104 0 183 51t131 139t78.5 207t26.5 256q0 131 -26.5 251t-78.5 210t-131 143t-183 53q-109 0 -189 -55t-132 -146t-77.5 -210t-25.5 -246zM690 1485l340 315q10 8 18 16.5t27 14.5q18 6 41 6q29 0 45 -22.5t16 -51.5q0 -25 -11 -41t-27.5 -28.5t-38 -22.5 t-42.5 -20l-335 -166h-33z" />
<glyph unicode="&#xd4;" horiz-adv-x="1662" d="M92 686q0 156 56.5 286t155.5 224t235.5 146.5t294.5 52.5q147 0 280 -50.5t234.5 -143.5t162 -225t60.5 -294q0 -166 -60.5 -297t-162 -223t-234.5 -141.5t-280 -49.5q-158 0 -293 50.5t-234.5 143.5t-157 225t-57.5 296zM410 682q0 -137 25.5 -256t77.5 -207t132 -139 t189 -51q104 0 183 51t131 139t78.5 207t26.5 256q0 131 -26.5 251t-78.5 210t-131 143t-183 53q-109 0 -189 -55t-132 -146t-77.5 -210t-25.5 -246zM479 1485l307 332h90l305 -332h-73l-277 172l-278 -172h-74z" />
<glyph unicode="&#xd5;" horiz-adv-x="1662" d="M92 686q0 156 56.5 286t155.5 224t235.5 146.5t294.5 52.5q147 0 280 -50.5t234.5 -143.5t162 -225t60.5 -294q0 -166 -60.5 -297t-162 -223t-234.5 -141.5t-280 -49.5q-158 0 -293 50.5t-234.5 143.5t-157 225t-57.5 296zM410 682q0 -137 25.5 -256t77.5 -207t132 -139 t189 -51q104 0 183 51t131 139t78.5 207t26.5 256q0 131 -26.5 251t-78.5 210t-131 143t-183 53q-109 0 -189 -55t-132 -146t-77.5 -210t-25.5 -246zM514 1550q14 88 62 150.5t136 62.5q37 0 80 -16t85 -34.5t81 -35t70 -16.5t51.5 21.5t30.5 70.5h39q-6 -43 -19.5 -83 t-35 -69.5t-53.5 -48t-75 -18.5q-45 0 -88 16.5t-84 35t-77.5 34.5t-67.5 16q-35 0 -60.5 -24.5t-31.5 -61.5h-43z" />
<glyph unicode="&#xd6;" horiz-adv-x="1662" d="M92 686q0 156 56.5 286t155.5 224t235.5 146.5t294.5 52.5q147 0 280 -50.5t234.5 -143.5t162 -225t60.5 -294q0 -166 -60.5 -297t-162 -223t-234.5 -141.5t-280 -49.5q-158 0 -293 50.5t-234.5 143.5t-157 225t-57.5 296zM410 682q0 -137 25.5 -256t77.5 -207t132 -139 t189 -51q104 0 183 51t131 139t78.5 207t26.5 256q0 131 -26.5 251t-78.5 210t-131 143t-183 53q-109 0 -189 -55t-132 -146t-77.5 -210t-25.5 -246zM524 1659q0 51 36 88t85 37q51 0 88 -37t37 -88q0 -49 -37 -85t-88 -36q-49 0 -85 36t-36 85zM888 1659q0 51 36 88t87 37 t87 -37t36 -88q0 -49 -35.5 -85t-87.5 -36q-51 0 -87 36t-36 85z" />
<glyph unicode="&#xd7;" horiz-adv-x="1052" d="M133 391l326 326l-322 323l64 66l323 -324l330 326l66 -68l-328 -325l326 -328l-64 -65l-328 327l-325 -323z" />
<glyph unicode="&#xd8;" horiz-adv-x="1662" d="M92 686q0 156 56.5 286t155.5 224t235.5 146.5t294.5 52.5q205 0 374 -95l146 211h80l-168 -245q137 -92 221 -240.5t84 -343.5q0 -166 -60.5 -297t-162 -223t-234.5 -141.5t-280 -49.5q-219 0 -392 95l-163 -238h-78l186 272q-135 92 -215 240.5t-80 345.5zM410 682 q0 -123 20.5 -232.5t61.5 -195.5l632 924q-53 76 -124.5 118.5t-165.5 42.5q-109 0 -189 -55t-132 -146t-77.5 -210t-25.5 -246zM528 193q53 -78 128 -121t178 -43q104 0 183 51t131 139t78.5 207t26.5 256q0 123 -22.5 233.5t-69.5 200.5z" />
<glyph unicode="&#xd9;" horiz-adv-x="1513" d="M55 1333v37q61 0 101.5 -1t71 -3t56 -3t60.5 -1q33 0 65.5 1t71.5 3t85 3t108 1v-37q-33 0 -62.5 -5t-52 -19.5t-36 -40t-13.5 -68.5v-719q0 -104 16.5 -184t56.5 -134t108.5 -83t172.5 -29q188 0 286.5 116t98.5 314v719q0 43 -13 68.5t-35.5 40t-52.5 19.5t-63 5v37 q41 0 68 -1t47.5 -2t38.5 -2t41 -1t40 1t37.5 2t47.5 2t68 1v-37q-33 0 -63 -5t-52.5 -19.5t-35.5 -40t-13 -68.5v-711q0 -137 -36 -234t-102.5 -158.5t-159.5 -90.5t-210 -29q-98 0 -201.5 17.5t-188.5 71t-138.5 152.5t-53.5 263v719q0 43 -13 68.5t-36 40t-52.5 19.5 t-62.5 5zM444 1763q0 35 20.5 54.5t51.5 19.5q23 0 40 -10t35 -27l340 -315h-32l-336 166q-20 10 -42 20t-38.5 22.5t-27.5 29t-11 40.5z" />
<glyph unicode="&#xda;" horiz-adv-x="1513" d="M55 1333v37q61 0 101.5 -1t71 -3t56 -3t60.5 -1q33 0 65.5 1t71.5 3t85 3t108 1v-37q-33 0 -62.5 -5t-52 -19.5t-36 -40t-13.5 -68.5v-719q0 -104 16.5 -184t56.5 -134t108.5 -83t172.5 -29q188 0 286.5 116t98.5 314v719q0 43 -13 68.5t-35.5 40t-52.5 19.5t-63 5v37 q41 0 68 -1t47.5 -2t38.5 -2t41 -1t40 1t37.5 2t47.5 2t68 1v-37q-33 0 -63 -5t-52.5 -19.5t-35.5 -40t-13 -68.5v-711q0 -137 -36 -234t-102.5 -158.5t-159.5 -90.5t-210 -29q-98 0 -201.5 17.5t-188.5 71t-138.5 152.5t-53.5 263v719q0 43 -13 68.5t-36 40t-52.5 19.5 t-62.5 5zM701 1485l340 315q10 8 18 16.5t27 14.5q18 6 41 6q29 0 45 -22.5t16 -51.5q0 -25 -11 -41t-27.5 -28.5t-38 -22.5t-42.5 -20l-335 -166h-33z" />
<glyph unicode="&#xdb;" horiz-adv-x="1513" d="M55 1333v37q61 0 101.5 -1t71 -3t56 -3t60.5 -1q33 0 65.5 1t71.5 3t85 3t108 1v-37q-33 0 -62.5 -5t-52 -19.5t-36 -40t-13.5 -68.5v-719q0 -104 16.5 -184t56.5 -134t108.5 -83t172.5 -29q188 0 286.5 116t98.5 314v719q0 43 -13 68.5t-35.5 40t-52.5 19.5t-63 5v37 q41 0 68 -1t47.5 -2t38.5 -2t41 -1t40 1t37.5 2t47.5 2t68 1v-37q-33 0 -63 -5t-52.5 -19.5t-35.5 -40t-13 -68.5v-711q0 -137 -36 -234t-102.5 -158.5t-159.5 -90.5t-210 -29q-98 0 -201.5 17.5t-188.5 71t-138.5 152.5t-53.5 263v719q0 43 -13 68.5t-36 40t-52.5 19.5 t-62.5 5zM479 1485l307 332h90l305 -332h-73l-277 172l-278 -172h-74z" />
<glyph unicode="&#xdc;" horiz-adv-x="1513" d="M55 1333v37q61 0 101.5 -1t71 -3t56 -3t60.5 -1q33 0 65.5 1t71.5 3t85 3t108 1v-37q-33 0 -62.5 -5t-52 -19.5t-36 -40t-13.5 -68.5v-719q0 -104 16.5 -184t56.5 -134t108.5 -83t172.5 -29q188 0 286.5 116t98.5 314v719q0 43 -13 68.5t-35.5 40t-52.5 19.5t-63 5v37 q41 0 68 -1t47.5 -2t38.5 -2t41 -1t40 1t37.5 2t47.5 2t68 1v-37q-33 0 -63 -5t-52.5 -19.5t-35.5 -40t-13 -68.5v-711q0 -137 -36 -234t-102.5 -158.5t-159.5 -90.5t-210 -29q-98 0 -201.5 17.5t-188.5 71t-138.5 152.5t-53.5 263v719q0 43 -13 68.5t-36 40t-52.5 19.5 t-62.5 5zM514 1659q0 51 36 88t85 37q51 0 88 -37t37 -88q0 -49 -37 -85t-88 -36q-49 0 -85 36t-36 85zM878 1659q0 51 36 88t87 37t87 -37t36 -88q0 -49 -35.5 -85t-87.5 -36q-51 0 -87 36t-36 85z" />
<glyph unicode="&#xdd;" horiz-adv-x="1370" d="M10 1333v37q51 0 91 -1t75 -3t67.5 -3t67.5 -1q33 0 62.5 1t63.5 3t74 3t95 1v-37q-18 0 -37.5 -2t-37 -10t-27.5 -22.5t-10 -41.5t9 -50t25 -54l254 -483l293 479q16 25 25.5 49.5t9.5 44.5q0 53 -34 71.5t-87 18.5v37q43 0 73 -1t51.5 -2t38.5 -2t36 -1q18 0 32.5 1 t32 2t42 2t65.5 1v-37q-39 0 -66.5 -11t-50 -30.5t-42 -46t-38.5 -59.5l-336 -557v-459q0 -43 13.5 -68.5t36 -40t52 -19.5t62.5 -5v-37q-61 0 -102 1t-72 3t-58.5 3t-60.5 1q-35 0 -66.5 -1t-68.5 -3t-83 -3t-107 -1v37q33 0 62.5 5t52 19.5t36 40t13.5 68.5v414l-320 581 q-27 47 -47 78t-42 50.5t-49.5 27.5t-68.5 12zM633 1485l340 315q10 8 18 16.5t27 14.5q18 6 41 6q29 0 45 -22.5t16 -51.5q0 -25 -11 -41t-27.5 -28.5t-38 -22.5t-42.5 -20l-335 -166h-33z" />
<glyph unicode="&#xde;" horiz-adv-x="1226" d="M76 0v37q33 0 62.5 5t52 19.5t36 40t13.5 68.5v1036q0 43 -13.5 68.5t-36 40t-52 19.5t-62.5 5v37q123 0 197.5 -4t142.5 -4q33 0 58.5 1t53 3t66.5 3t100 1v-37q-33 0 -62.5 -5t-52 -19.5t-36 -40t-13.5 -68.5v-176q74 6 138 6q244 0 359.5 -97t115.5 -257 q0 -74 -30 -137.5t-91 -109.5t-156.5 -71.5t-226.5 -25.5q-27 0 -53.5 1t-55.5 3v-172q0 -43 13.5 -68.5t36 -40t52.5 -19.5t62 -5v-37q-61 0 -100 1t-66.5 3t-53 3t-58.5 1q-68 0 -142.5 -4t-197.5 -4zM530 397q20 -4 39 -4h35q76 0 124 26.5t73.5 69.5t35 96.5t9.5 106.5 t-9.5 104.5t-35 92.5t-68.5 66.5t-110 25.5q-43 0 -93 -6v-578z" />
<glyph unicode="&#xdf;" horiz-adv-x="1173" d="M66 0v37q31 0 55 3t42.5 15.5t29 35t10.5 63.5v827q0 147 47 233t113.5 132.5t140.5 59.5t127 13q70 0 136.5 -20.5t118.5 -60.5t83.5 -102t31.5 -144q0 -59 -21.5 -111.5t-59 -94.5t-91 -68.5t-116.5 -35.5v-4q70 -6 138.5 -34.5t123.5 -80t90 -125t35 -171.5 q0 -90 -29 -163t-78 -124t-113.5 -79t-134.5 -28q-29 0 -63.5 6.5t-65 21.5t-51 42t-20.5 68q0 29 19.5 48t47.5 19q33 0 51.5 -20.5t26.5 -45t10 -47t7 -26.5q14 -14 43 -14q41 0 63.5 31.5t32.5 81.5t12 111.5t2 119.5q0 117 -18.5 190.5t-52 115.5t-82 58.5t-109.5 16.5 h-20v51h18q49 0 82 12t54.5 44t30.5 84t9 132q0 135 -33.5 216t-120.5 81q-72 0 -110.5 -32.5t-57 -84t-21.5 -113t-3 -118.5v-868q0 -80 25.5 -98.5t70.5 -18.5v-37q-35 0 -57.5 1t-40.5 2t-37.5 2t-46.5 1q-57 0 -116.5 -3t-157.5 -3z" />
<glyph unicode="&#xe0;" horiz-adv-x="1015" d="M86 184q0 74 46 127.5t111.5 91t137.5 64.5t123 49q55 25 84.5 41t29.5 35v59q0 25 -3 61t-19 69.5t-51.5 57t-98.5 23.5q-31 0 -64.5 -4t-62 -13t-47 -21.5t-18.5 -28.5q0 -4 7 -27t7 -51q0 -35 -19.5 -60.5t-58.5 -25.5q-35 0 -59.5 25.5t-24.5 74.5q0 55 39 90 t95.5 54.5t120 26.5t110.5 7q70 0 137.5 -13t118.5 -46t83 -88t32 -139v-449q0 -16 2 -35.5t8 -37t19.5 -29t37.5 -11.5q23 0 36 16.5t24 33.5l26 -15q-4 -10 -16 -29.5t-33.5 -39t-54.5 -35t-76 -15.5q-78 0 -122 32t-66 93q-72 -59 -141.5 -92t-166.5 -33q-45 0 -87 12.5 t-74.5 38t-52 64.5t-19.5 92zM145 1343q0 33 21.5 52.5t50.5 19.5q23 0 40 -11t36 -32l280 -317h-49l-274 174q-41 25 -73 47t-32 67zM309 217q0 -27 7.5 -52.5t21.5 -47t35.5 -34.5t50.5 -13q57 0 107.5 26.5t86.5 65.5v354q-59 -31 -114 -54.5t-98.5 -54t-70 -74.5 t-26.5 -116z" />
<glyph unicode="&#xe1;" horiz-adv-x="1015" d="M86 184q0 74 46 127.5t111.5 91t137.5 64.5t123 49q55 25 84.5 41t29.5 35v59q0 25 -3 61t-19 69.5t-51.5 57t-98.5 23.5q-31 0 -64.5 -4t-62 -13t-47 -21.5t-18.5 -28.5q0 -4 7 -27t7 -51q0 -35 -19.5 -60.5t-58.5 -25.5q-35 0 -59.5 25.5t-24.5 74.5q0 55 39 90 t95.5 54.5t120 26.5t110.5 7q70 0 137.5 -13t118.5 -46t83 -88t32 -139v-449q0 -16 2 -35.5t8 -37t19.5 -29t37.5 -11.5q23 0 36 16.5t24 33.5l26 -15q-4 -10 -16 -29.5t-33.5 -39t-54.5 -35t-76 -15.5q-78 0 -122 32t-66 93q-72 -59 -141.5 -92t-166.5 -33q-45 0 -87 12.5 t-74.5 38t-52 64.5t-19.5 92zM309 217q0 -27 7.5 -52.5t21.5 -47t35.5 -34.5t50.5 -13q57 0 107.5 26.5t86.5 65.5v354q-59 -31 -114 -54.5t-98.5 -54t-70 -74.5t-26.5 -116zM330 1055l281 317q20 20 38.5 31.5t43.5 11.5q29 0 47 -19.5t18 -43.5q0 -43 -29.5 -69t-60.5 -46 l-289 -182h-49z" />
<glyph unicode="&#xe2;" horiz-adv-x="1015" d="M86 184q0 74 46 127.5t111.5 91t137.5 64.5t123 49q55 25 84.5 41t29.5 35v59q0 25 -3 61t-19 69.5t-51.5 57t-98.5 23.5q-31 0 -64.5 -4t-62 -13t-47 -21.5t-18.5 -28.5q0 -4 7 -27t7 -51q0 -35 -19.5 -60.5t-58.5 -25.5q-35 0 -59.5 25.5t-24.5 74.5q0 55 39 90 t95.5 54.5t120 26.5t110.5 7q70 0 137.5 -13t118.5 -46t83 -88t32 -139v-449q0 -16 2 -35.5t8 -37t19.5 -29t37.5 -11.5q23 0 36 16.5t24 33.5l26 -15q-4 -10 -16 -29.5t-33.5 -39t-54.5 -35t-76 -15.5q-78 0 -122 32t-66 93q-72 -59 -141.5 -92t-166.5 -33q-45 0 -87 12.5 t-74.5 38t-52 64.5t-19.5 92zM188 1061l264 346h70l215 -346h-45l-205 186l-256 -186h-43zM309 217q0 -27 7.5 -52.5t21.5 -47t35.5 -34.5t50.5 -13q57 0 107.5 26.5t86.5 65.5v354q-59 -31 -114 -54.5t-98.5 -54t-70 -74.5t-26.5 -116z" />
<glyph unicode="&#xe3;" horiz-adv-x="1015" d="M86 184q0 74 46 127.5t111.5 91t137.5 64.5t123 49q55 25 84.5 41t29.5 35v59q0 25 -3 61t-19 69.5t-51.5 57t-98.5 23.5q-31 0 -64.5 -4t-62 -13t-47 -21.5t-18.5 -28.5q0 -4 7 -27t7 -51q0 -35 -19.5 -60.5t-58.5 -25.5q-35 0 -59.5 25.5t-24.5 74.5q0 55 39 90 t95.5 54.5t120 26.5t110.5 7q70 0 137.5 -13t118.5 -46t83 -88t32 -139v-449q0 -16 2 -35.5t8 -37t19.5 -29t37.5 -11.5q23 0 36 16.5t24 33.5l26 -15q-4 -10 -16 -29.5t-33.5 -39t-54.5 -35t-76 -15.5q-78 0 -122 32t-66 93q-72 -59 -141.5 -92t-166.5 -33q-45 0 -87 12.5 t-74.5 38t-52 64.5t-19.5 92zM191 1126q18 86 61 145.5t119 59.5q39 0 77 -15.5t73.5 -32.5t69.5 -32.5t65 -15.5q23 0 43 17.5t33 70.5h38q-6 -43 -19 -81t-34.5 -66.5t-50.5 -46t-66 -17.5q-41 0 -79.5 15.5t-74.5 35t-69 34.5t-59 15q-41 0 -59.5 -24.5t-28.5 -61.5h-39z M309 217q0 -27 7.5 -52.5t21.5 -47t35.5 -34.5t50.5 -13q57 0 107.5 26.5t86.5 65.5v354q-59 -31 -114 -54.5t-98.5 -54t-70 -74.5t-26.5 -116z" />
<glyph unicode="&#xe4;" horiz-adv-x="1015" d="M86 184q0 74 46 127.5t111.5 91t137.5 64.5t123 49q55 25 84.5 41t29.5 35v59q0 25 -3 61t-19 69.5t-51.5 57t-98.5 23.5q-31 0 -64.5 -4t-62 -13t-47 -21.5t-18.5 -28.5q0 -4 7 -27t7 -51q0 -35 -19.5 -60.5t-58.5 -25.5q-35 0 -59.5 25.5t-24.5 74.5q0 55 39 90 t95.5 54.5t120 26.5t110.5 7q70 0 137.5 -13t118.5 -46t83 -88t32 -139v-449q0 -16 2 -35.5t8 -37t19.5 -29t37.5 -11.5q23 0 36 16.5t24 33.5l26 -15q-4 -10 -16 -29.5t-33.5 -39t-54.5 -35t-76 -15.5q-78 0 -122 32t-66 93q-72 -59 -141.5 -92t-166.5 -33q-45 0 -87 12.5 t-74.5 38t-52 64.5t-19.5 92zM201 1227q0 49 35 85t84 36t85 -36t36 -85t-36 -84t-85 -35t-84 35t-35 84zM309 217q0 -27 7.5 -52.5t21.5 -47t35.5 -34.5t50.5 -13q57 0 107.5 26.5t86.5 65.5v354q-59 -31 -114 -54.5t-98.5 -54t-70 -74.5t-26.5 -116zM549 1227q0 49 35 85 t84 36t85 -36t36 -85t-36 -84t-85 -35t-84 35t-35 84z" />
<glyph unicode="&#xe5;" horiz-adv-x="1015" d="M86 184q0 74 46 127.5t111.5 91t137.5 64.5t123 49q55 25 84.5 41t29.5 35v59q0 25 -3 61t-19 69.5t-51.5 57t-98.5 23.5q-31 0 -64.5 -4t-62 -13t-47 -21.5t-18.5 -28.5q0 -4 7 -27t7 -51q0 -35 -19.5 -60.5t-58.5 -25.5q-35 0 -59.5 25.5t-24.5 74.5q0 55 39 90 t95.5 54.5t120 26.5t110.5 7q70 0 137.5 -13t118.5 -46t83 -88t32 -139v-449q0 -16 2 -35.5t8 -37t19.5 -29t37.5 -11.5q23 0 36 16.5t24 33.5l26 -15q-4 -10 -16 -29.5t-33.5 -39t-54.5 -35t-76 -15.5q-78 0 -122 32t-66 93q-72 -59 -141.5 -92t-166.5 -33q-45 0 -87 12.5 t-74.5 38t-52 64.5t-19.5 92zM283 1219q0 39 15.5 73.5t41 61t60 41t73.5 14.5t74 -15.5t60.5 -41t41 -60.5t15.5 -73q0 -39 -14.5 -74t-41 -60.5t-61.5 -41t-74 -15.5t-73.5 15.5t-60 41t-41 60.5t-15.5 74zM309 217q0 -27 7.5 -52.5t21.5 -47t35.5 -34.5t50.5 -13 q57 0 107.5 26.5t86.5 65.5v354q-59 -31 -114 -54.5t-98.5 -54t-70 -74.5t-26.5 -116zM361 1219q0 -47 32.5 -81t79.5 -34q49 0 82 33.5t33 81.5q0 49 -33 81.5t-82 32.5q-47 0 -79.5 -32.5t-32.5 -81.5z" />
<glyph unicode="&#xe6;" horiz-adv-x="1529" d="M86 182q0 74 46 127t111.5 91t137.5 65t123 49q43 18 76.5 32.5t35.5 31.5q2 18 3.5 37.5t1.5 39.5q0 86 -37.5 144.5t-137.5 58.5q-31 0 -64.5 -4t-62 -12t-47 -20.5t-18.5 -30.5q0 -4 7 -26t7 -50q0 -35 -19.5 -60.5t-58.5 -25.5q-35 0 -59.5 25.5t-24.5 74.5 q0 51 35 86t88.5 55.5t118 28.5t123.5 8h16q72 -2 143.5 -24.5t125.5 -77.5q59 47 145 73.5t168 26.5q72 0 139.5 -23.5t119.5 -67.5t86 -105.5t40 -135.5q0 -12 -1 -22t-11 -10h-613q-4 -29 -5 -55.5t-1 -55.5q0 -84 19.5 -155.5t57.5 -125t91 -83t121 -29.5q55 0 98 14.5 t77 33.5t58.5 43t43.5 42l22 -20q-25 -31 -58.5 -62t-76.5 -55.5t-97.5 -41t-119.5 -16.5q-111 0 -207 42t-168 135q-29 -33 -69 -65t-87 -56.5t-100 -40t-109 -15.5q-45 0 -87 12.5t-74.5 38t-52 64.5t-19.5 92zM299 213q0 -27 6 -53.5t21.5 -48t38 -35t57.5 -13.5 q37 0 71.5 12.5t64.5 32t55.5 42.5t43.5 43q-39 80 -49 134t-10 101q0 41 6 78q-55 -29 -110.5 -52.5t-98.5 -55t-69.5 -74.5t-26.5 -111zM836 590h372q33 0 33 33q0 39 -9 80.5t-29.5 76.5t-54.5 57.5t-83 22.5q-61 0 -101 -26.5t-67 -66.5t-40 -87t-21 -90z" />
<glyph unicode="&#xe7;" horiz-adv-x="911" d="M82 424q0 102 39 191.5t105.5 154t156.5 101t195 36.5q27 0 71.5 -7t87.5 -24.5t75 -49t32 -81.5q0 -33 -19.5 -59.5t-62.5 -26.5q-33 0 -55.5 26t-22.5 67q0 16 3 34.5t3 20.5q0 12 -11 22.5t-27.5 16.5t-36 10t-37.5 4q-72 0 -121 -37t-78 -96t-41 -135t-12 -154 q0 -186 65.5 -292.5t188.5 -106.5q49 0 91 11t75.5 29.5t58 40t43.5 42.5l22 -21q-63 -84 -152 -122.5t-179 -43.5l-9 -22h9q96 0 143 -40t47 -93t-45 -96t-135 -43q-63 0 -113.5 28.5t-50.5 77.5q0 23 12.5 38t34.5 15q16 0 30.5 -10t20.5 -27q8 -23 8.5 -38t4.5 -19 q18 -18 51 -18q37 0 56.5 25.5t19.5 56.5q0 90 -103 92q-6 0 -28.5 -1t-40.5 -5l28 81q-82 8 -154.5 41t-126 89.5t-85 136.5t-31.5 180z" />
<glyph unicode="&#xe8;" horiz-adv-x="1013" d="M82 428q0 98 37 184t100.5 151.5t149.5 103.5t184 38q72 0 139.5 -23.5t119.5 -67.5t86 -105.5t40 -135.5q0 -12 -1 -22t-11 -10h-600q-4 -35 -5.5 -58.5t-1.5 -52.5q0 -86 19.5 -158.5t54.5 -125t86 -81t115 -28.5q55 0 98 14.5t78 33.5t59.5 43t42.5 42l23 -20 q-25 -31 -58.5 -62t-76.5 -55.5t-97.5 -41t-119.5 -16.5q-86 0 -168 30t-147.5 87.5t-105.5 142t-40 193.5zM151 1343q0 33 21.5 52.5t50.5 19.5q23 0 40 -11t36 -32l280 -317h-49l-274 174q-41 25 -73 47t-32 67zM332 590h340q33 0 33 33q0 39 -7.5 80.5t-26 76.5t-48 57.5 t-74.5 22.5q-57 0 -95 -26.5t-62.5 -66.5t-38 -87t-21.5 -90z" />
<glyph unicode="&#xe9;" horiz-adv-x="1013" d="M82 428q0 98 37 184t100.5 151.5t149.5 103.5t184 38q72 0 139.5 -23.5t119.5 -67.5t86 -105.5t40 -135.5q0 -12 -1 -22t-11 -10h-600q-4 -35 -5.5 -58.5t-1.5 -52.5q0 -86 19.5 -158.5t54.5 -125t86 -81t115 -28.5q55 0 98 14.5t78 33.5t59.5 43t42.5 42l23 -20 q-25 -31 -58.5 -62t-76.5 -55.5t-97.5 -41t-119.5 -16.5q-86 0 -168 30t-147.5 87.5t-105.5 142t-40 193.5zM332 590h340q33 0 33 33q0 39 -7.5 80.5t-26 76.5t-48 57.5t-74.5 22.5q-57 0 -95 -26.5t-62.5 -66.5t-38 -87t-21.5 -90zM428 1055l281 317q20 20 38.5 31.5 t43.5 11.5q29 0 47 -19.5t18 -43.5q0 -43 -29.5 -69t-60.5 -46l-289 -182h-49z" />
<glyph unicode="&#xea;" horiz-adv-x="1013" d="M82 428q0 98 37 184t100.5 151.5t149.5 103.5t184 38q72 0 139.5 -23.5t119.5 -67.5t86 -105.5t40 -135.5q0 -12 -1 -22t-11 -10h-600q-4 -35 -5.5 -58.5t-1.5 -52.5q0 -86 19.5 -158.5t54.5 -125t86 -81t115 -28.5q55 0 98 14.5t78 33.5t59.5 43t42.5 42l23 -20 q-25 -31 -58.5 -62t-76.5 -55.5t-97.5 -41t-119.5 -16.5q-86 0 -168 30t-147.5 87.5t-105.5 142t-40 193.5zM229 1061l264 346h70l215 -346h-45l-205 186l-256 -186h-43zM332 590h340q33 0 33 33q0 39 -7.5 80.5t-26 76.5t-48 57.5t-74.5 22.5q-57 0 -95 -26.5t-62.5 -66.5 t-38 -87t-21.5 -90z" />
<glyph unicode="&#xeb;" horiz-adv-x="1013" d="M82 428q0 98 37 184t100.5 151.5t149.5 103.5t184 38q72 0 139.5 -23.5t119.5 -67.5t86 -105.5t40 -135.5q0 -12 -1 -22t-11 -10h-600q-4 -35 -5.5 -58.5t-1.5 -52.5q0 -86 19.5 -158.5t54.5 -125t86 -81t115 -28.5q55 0 98 14.5t78 33.5t59.5 43t42.5 42l23 -20 q-25 -31 -58.5 -62t-76.5 -55.5t-97.5 -41t-119.5 -16.5q-86 0 -168 30t-147.5 87.5t-105.5 142t-40 193.5zM217 1227q0 49 35 85t84 36t85 -36t36 -85t-36 -84t-85 -35t-84 35t-35 84zM332 590h340q33 0 33 33q0 39 -7.5 80.5t-26 76.5t-48 57.5t-74.5 22.5 q-57 0 -95 -26.5t-62.5 -66.5t-38 -87t-21.5 -90zM565 1227q0 49 35 85t84 36t85 -36t36 -85t-36 -84t-85 -35t-84 35t-35 84z" />
<glyph unicode="&#xec;" horiz-adv-x="634" d="M-45 1343q0 33 21.5 52.5t50.5 19.5q23 0 40 -11t36 -32l280 -317h-49l-274 174q-41 25 -73 47t-32 67zM66 811v37q117 18 212 37.5t160 42.5v-733q0 -41 2 -69t16.5 -47.5t42 -29.5t81.5 -12v-37q-49 0 -83 1t-60.5 2t-51.5 2t-53 1q-31 0 -56.5 -1t-54 -2t-63.5 -2 t-84 -1v37q51 2 79.5 12t43 29.5t16.5 47.5t2 69v469q0 76 -9 114.5t-63 38.5z" />
<glyph unicode="&#xed;" horiz-adv-x="634" d="M66 811v37q117 18 212 37.5t160 42.5v-733q0 -41 2 -69t16.5 -47.5t42 -29.5t81.5 -12v-37q-49 0 -83 1t-60.5 2t-51.5 2t-53 1q-31 0 -56.5 -1t-54 -2t-63.5 -2t-84 -1v37q51 2 79.5 12t43 29.5t16.5 47.5t2 69v469q0 76 -9 114.5t-63 38.5zM151 1055l281 317 q20 20 38.5 31.5t43.5 11.5q29 0 47 -19.5t18 -43.5q0 -43 -29.5 -69t-60.5 -46l-289 -182h-49z" />
<glyph unicode="&#xee;" horiz-adv-x="634" d="M12 1061l264 346h70l215 -346h-45l-205 186l-256 -186h-43zM66 811v37q117 18 212 37.5t160 42.5v-733q0 -41 2 -69t16.5 -47.5t42 -29.5t81.5 -12v-37q-49 0 -83 1t-60.5 2t-51.5 2t-53 1q-31 0 -56.5 -1t-54 -2t-63.5 -2t-84 -1v37q51 2 79.5 12t43 29.5t16.5 47.5 t2 69v469q0 76 -9 114.5t-63 38.5z" />
<glyph unicode="&#xef;" horiz-adv-x="634" d="M23 1227q0 49 35 85t84 36t85 -36t36 -85t-36 -84t-85 -35t-84 35t-35 84zM66 811v37q117 18 212 37.5t160 42.5v-733q0 -41 2 -69t16.5 -47.5t42 -29.5t81.5 -12v-37q-49 0 -83 1t-60.5 2t-51.5 2t-53 1q-31 0 -56.5 -1t-54 -2t-63.5 -2t-84 -1v37q51 2 79.5 12t43 29.5 t16.5 47.5t2 69v469q0 76 -9 114.5t-63 38.5zM371 1227q0 49 35 85t84 36t85 -36t36 -85t-36 -84t-85 -35t-84 35t-35 84z" />
<glyph unicode="&#xf0;" d="M82 444q0 88 30.5 172t89 151t144.5 107.5t199 40.5q41 0 81 -5t99 -25q-39 147 -119 295l-207 -101l-26 56l202 98q-33 53 -68.5 98t-78.5 90l25 25q43 -37 93 -84t97 -96l207 100l27 -55l-191 -92q72 -82 138.5 -176.5t116.5 -194.5t81 -204.5t31 -209.5 q0 -131 -48.5 -219t-122 -142.5t-161.5 -77t-168 -22.5q-98 0 -184 34t-149.5 95.5t-100.5 148.5t-37 193zM330 463q0 -131 20.5 -216t54 -134.5t76.5 -68.5t88 -19q41 0 83 19t76 67.5t55.5 127t21.5 197.5q0 127 -23.5 210t-60.5 131t-80 67.5t-82 19.5q-43 0 -84 -21.5 t-73.5 -68.5t-52 -124t-19.5 -187z" />
<glyph unicode="&#xf1;" horiz-adv-x="1212" d="M66 0v37q31 0 55 3t42.5 15.5t29 35t10.5 63.5v534q0 39 -10.5 62.5t-29 36t-43 15.5t-54.5 3v37q35 4 77.5 11t85.5 16.5t84 21.5t74 27q10 -51 15.5 -91.5t7.5 -74.5q53 84 133 120.5t172 36.5q104 0 164.5 -36.5t91 -90t40 -112t9.5 -103.5v-413q0 -41 10 -63.5 t28.5 -35t43 -15.5t55.5 -3v-37q-49 0 -83 1t-60.5 2t-49 2t-49.5 1q-29 0 -53 -1t-53 -2t-64.5 -2t-85.5 -1v37q31 0 55.5 3t43 15.5t29 35t10.5 63.5v403q0 25 -3 71t-18.5 92t-49.5 81t-95 35q-47 0 -85 -21.5t-64.5 -56.5t-41 -81t-14.5 -97v-426q0 -41 10 -63.5 t28.5 -35t43 -15.5t55.5 -3v-37q-49 0 -86 1t-66.5 2t-55 2t-52.5 1q-29 0 -51.5 -1t-47 -2t-57 -2t-81.5 -1zM340 1126q18 86 61 145.5t119 59.5q39 0 77 -15.5t73.5 -32.5t69.5 -32.5t65 -15.5q23 0 43 17.5t33 70.5h38q-6 -43 -19 -81t-34.5 -66.5t-50.5 -46t-66 -17.5 q-41 0 -79.5 15.5t-74.5 35t-69 34.5t-59 15q-41 0 -59.5 -24.5t-28.5 -61.5h-39z" />
<glyph unicode="&#xf2;" d="M82 442q0 106 39 192.5t105.5 148t155.5 94t189 32.5q96 0 183.5 -32.5t154 -94t105.5 -148t39 -190.5q0 -102 -37 -188t-102.5 -148.5t-153.5 -98.5t-189 -36q-102 0 -191 36t-154.5 98.5t-104.5 148.5t-39 186zM328 442q0 -86 14 -162.5t44 -134t76 -91.5t109 -34 q61 0 105.5 34t74 91.5t43 135t13.5 163.5t-13.5 162t-43 133.5t-74 90t-105.5 32.5q-63 0 -109 -32.5t-76 -90t-44 -134.5t-14 -163zM352 1343q0 33 21.5 52.5t50.5 19.5q23 0 40 -11t36 -32l280 -317h-49l-274 174q-41 25 -73 47t-32 67z" />
<glyph unicode="&#xf3;" d="M82 442q0 106 39 192.5t105.5 148t155.5 94t189 32.5q96 0 183.5 -32.5t154 -94t105.5 -148t39 -190.5q0 -102 -37 -188t-102.5 -148.5t-153.5 -98.5t-189 -36q-102 0 -191 36t-154.5 98.5t-104.5 148.5t-39 186zM328 442q0 -86 14 -162.5t44 -134t76 -91.5t109 -34 q61 0 105.5 34t74 91.5t43 135t13.5 163.5t-13.5 162t-43 133.5t-74 90t-105.5 32.5q-63 0 -109 -32.5t-76 -90t-44 -134.5t-14 -163zM362 1055l281 317q20 20 38.5 31.5t43.5 11.5q29 0 47 -19.5t18 -43.5q0 -43 -29.5 -69t-60.5 -46l-289 -182h-49z" />
<glyph unicode="&#xf4;" d="M82 442q0 106 39 192.5t105.5 148t155.5 94t189 32.5q96 0 183.5 -32.5t154 -94t105.5 -148t39 -190.5q0 -102 -37 -188t-102.5 -148.5t-153.5 -98.5t-189 -36q-102 0 -191 36t-154.5 98.5t-104.5 148.5t-39 186zM291 1061l264 346h70l215 -346h-45l-205 186l-256 -186 h-43zM328 442q0 -86 14 -162.5t44 -134t76 -91.5t109 -34q61 0 105.5 34t74 91.5t43 135t13.5 163.5t-13.5 162t-43 133.5t-74 90t-105.5 32.5q-63 0 -109 -32.5t-76 -90t-44 -134.5t-14 -163z" />
<glyph unicode="&#xf5;" d="M82 442q0 106 39 192.5t105.5 148t155.5 94t189 32.5q96 0 183.5 -32.5t154 -94t105.5 -148t39 -190.5q0 -102 -37 -188t-102.5 -148.5t-153.5 -98.5t-189 -36q-102 0 -191 36t-154.5 98.5t-104.5 148.5t-39 186zM277 1126q18 86 61 145.5t119 59.5q39 0 77 -15.5 t73.5 -32.5t69.5 -32.5t65 -15.5q23 0 43 17.5t33 70.5h38q-6 -43 -19 -81t-34.5 -66.5t-50.5 -46t-66 -17.5q-41 0 -79.5 15.5t-74.5 35t-69 34.5t-59 15q-41 0 -59.5 -24.5t-28.5 -61.5h-39zM328 442q0 -86 14 -162.5t44 -134t76 -91.5t109 -34q61 0 105.5 34t74 91.5 t43 135t13.5 163.5t-13.5 162t-43 133.5t-74 90t-105.5 32.5q-63 0 -109 -32.5t-76 -90t-44 -134.5t-14 -163z" />
<glyph unicode="&#xf6;" d="M82 442q0 106 39 192.5t105.5 148t155.5 94t189 32.5q96 0 183.5 -32.5t154 -94t105.5 -148t39 -190.5q0 -102 -37 -188t-102.5 -148.5t-153.5 -98.5t-189 -36q-102 0 -191 36t-154.5 98.5t-104.5 148.5t-39 186zM275 1227q0 49 35 85t84 36t85 -36t36 -85t-36 -84 t-85 -35t-84 35t-35 84zM328 442q0 -86 14 -162.5t44 -134t76 -91.5t109 -34q61 0 105.5 34t74 91.5t43 135t13.5 163.5t-13.5 162t-43 133.5t-74 90t-105.5 32.5q-63 0 -109 -32.5t-76 -90t-44 -134.5t-14 -163zM623 1227q0 49 35 85t84 36t85 -36t36 -85t-36 -84t-85 -35 t-84 35t-35 84z" />
<glyph unicode="&#xf7;" horiz-adv-x="1175" d="M123 668v96h930v-96h-930zM494 354q0 39 27.5 67t66.5 28q41 0 68.5 -28t27.5 -67q0 -41 -27.5 -68.5t-68.5 -27.5q-39 0 -66.5 27.5t-27.5 68.5zM494 1075q0 41 27.5 68.5t66.5 27.5q41 0 68.5 -27.5t27.5 -68.5q0 -39 -27.5 -66.5t-68.5 -27.5q-39 0 -66.5 27.5 t-27.5 66.5z" />
<glyph unicode="&#xf8;" d="M82 442q0 106 39 192.5t105.5 148t155.5 94t189 32.5q127 0 238 -57l125 182h70l-146 -213q88 -61 141.5 -157.5t53.5 -219.5q0 -102 -37 -188t-102.5 -148.5t-153.5 -98.5t-189 -36q-139 0 -249 64l-140 -205h-69l159 236q-88 63 -139 159.5t-51 214.5zM330 442 q0 -68 8 -129t24 -114l381 557q-29 47 -71 76.5t-101 29.5q-68 0 -113.5 -32.5t-74.5 -90t-41 -134.5t-12 -163zM389 135q29 -53 73 -85t109 -32q66 0 111 34t73.5 92.5t41 136t12.5 163.5q0 72 -8 135.5t-29 116.5z" />
<glyph unicode="&#xf9;" horiz-adv-x="1189" d="M41 850v37q43 0 70.5 -1t49 -2t42 -2t49.5 -1t65.5 3t83.5 3v-598q0 -27 3.5 -69t18.5 -81t47 -66.5t87 -27.5q37 0 75 13.5t68.5 41t50 66.5t19.5 92v475q0 39 -10 62.5t-28.5 36t-43 15.5t-55.5 3v37q43 0 75.5 -1t58.5 -2t48.5 -2t44.5 -1q35 0 61.5 3t71.5 3v-627 q0 -100 37 -135t109 -35v-37q-27 -6 -70 -13t-91 -16.5t-93 -19.5t-76 -18q-10 27 -17.5 54.5t-15.5 68.5q-53 -74 -131 -104t-164 -30q-63 0 -118.5 17.5t-96.5 53.5t-64.5 92.5t-23.5 133.5v461q0 39 -10 62.5t-28.5 36t-43 15.5t-55.5 3zM178 1343q0 33 21.5 52.5 t50.5 19.5q23 0 40 -11t36 -32l280 -317h-49l-274 174q-41 25 -73 47t-32 67z" />
<glyph unicode="&#xfa;" horiz-adv-x="1189" d="M41 850v37q43 0 70.5 -1t49 -2t42 -2t49.5 -1t65.5 3t83.5 3v-598q0 -27 3.5 -69t18.5 -81t47 -66.5t87 -27.5q37 0 75 13.5t68.5 41t50 66.5t19.5 92v475q0 39 -10 62.5t-28.5 36t-43 15.5t-55.5 3v37q43 0 75.5 -1t58.5 -2t48.5 -2t44.5 -1q35 0 61.5 3t71.5 3v-627 q0 -100 37 -135t109 -35v-37q-27 -6 -70 -13t-91 -16.5t-93 -19.5t-76 -18q-10 27 -17.5 54.5t-15.5 68.5q-53 -74 -131 -104t-164 -30q-63 0 -118.5 17.5t-96.5 53.5t-64.5 92.5t-23.5 133.5v461q0 39 -10 62.5t-28.5 36t-43 15.5t-55.5 3zM444 1055l281 317 q20 20 38.5 31.5t43.5 11.5q29 0 47 -19.5t18 -43.5q0 -43 -29.5 -69t-60.5 -46l-289 -182h-49z" />
<glyph unicode="&#xfb;" horiz-adv-x="1189" d="M41 850v37q43 0 70.5 -1t49 -2t42 -2t49.5 -1t65.5 3t83.5 3v-598q0 -27 3.5 -69t18.5 -81t47 -66.5t87 -27.5q37 0 75 13.5t68.5 41t50 66.5t19.5 92v475q0 39 -10 62.5t-28.5 36t-43 15.5t-55.5 3v37q43 0 75.5 -1t58.5 -2t48.5 -2t44.5 -1q35 0 61.5 3t71.5 3v-627 q0 -100 37 -135t109 -35v-37q-27 -6 -70 -13t-91 -16.5t-93 -19.5t-76 -18q-10 27 -17.5 54.5t-15.5 68.5q-53 -74 -131 -104t-164 -30q-63 0 -118.5 17.5t-96.5 53.5t-64.5 92.5t-23.5 133.5v461q0 39 -10 62.5t-28.5 36t-43 15.5t-55.5 3zM283 1061l264 346h70l215 -346 h-45l-205 186l-256 -186h-43z" />
<glyph unicode="&#xfc;" horiz-adv-x="1189" d="M41 850v37q43 0 70.5 -1t49 -2t42 -2t49.5 -1t65.5 3t83.5 3v-598q0 -27 3.5 -69t18.5 -81t47 -66.5t87 -27.5q37 0 75 13.5t68.5 41t50 66.5t19.5 92v475q0 39 -10 62.5t-28.5 36t-43 15.5t-55.5 3v37q43 0 75.5 -1t58.5 -2t48.5 -2t44.5 -1q35 0 61.5 3t71.5 3v-627 q0 -100 37 -135t109 -35v-37q-27 -6 -70 -13t-91 -16.5t-93 -19.5t-76 -18q-10 27 -17.5 54.5t-15.5 68.5q-53 -74 -131 -104t-164 -30q-63 0 -118.5 17.5t-96.5 53.5t-64.5 92.5t-23.5 133.5v461q0 39 -10 62.5t-28.5 36t-43 15.5t-55.5 3zM272 1227q0 49 35 85t84 36 t85 -36t36 -85t-36 -84t-85 -35t-84 35t-35 84zM620 1227q0 49 35 85t84 36t85 -36t36 -85t-36 -84t-85 -35t-84 35t-35 84z" />
<glyph unicode="&#xfd;" horiz-adv-x="925" d="M-14 850v37q45 0 76.5 -1t57 -2t48 -2t47.5 -1q27 0 49.5 1t49 2t58 2t74.5 1v-37q-37 0 -68.5 -11.5t-31.5 -62.5q0 -10 5 -25.5t9 -27.5l191 -449l184 431q6 16 11.5 34.5t5.5 30.5q0 47 -27 62.5t-72 17.5v37q31 0 50.5 -1t35 -1t29.5 -1t31 -1q33 0 59.5 2t81.5 2 v-37q-55 -2 -88 -40t-64 -110l-454 -1050q-12 -29 -28.5 -64t-38 -65.5t-48 -51t-59.5 -20.5q-23 0 -42.5 15.5t-19.5 43.5q0 23 12.5 38.5t29 25.5t36 17.5t35.5 11.5t45 35.5t57 95.5l121 276l-284 662q-35 80 -69 130t-95 50zM403 1055l281 317q20 20 38.5 31.5 t43.5 11.5q29 0 47 -19.5t18 -43.5q0 -43 -29.5 -69t-60.5 -46l-289 -182h-49z" />
<glyph unicode="&#xfe;" horiz-adv-x="1191" d="M66 -498q31 0 55 3t42.5 15.5t29 35t10.5 63.5v1561q0 39 -10.5 62.5t-29 35.5t-43 15t-54.5 3v37q76 6 171 25.5t171 46.5q4 -16 5 -37.5t1 -42.5v-547q43 53 108.5 92t151.5 39q102 0 183 -35.5t137.5 -100t86 -155t29.5 -196.5q0 -92 -29.5 -173t-85 -142.5 t-134.5 -96.5t-177 -35t-163.5 40t-104.5 94v-490q0 -41 10 -63.5t28.5 -35t43 -15.5t55.5 -3v-37q-49 0 -80 1.5t-53.5 2.5t-43 2t-46.5 1q-29 0 -55.5 -1t-56.5 -2t-66.5 -2.5t-85.5 -1.5v37zM416 289q0 -49 17.5 -97.5t50 -85t79.5 -59t105 -22.5q57 0 97 34.5t64.5 93 t36 132t11.5 151.5q0 70 -8.5 143.5t-33 135t-68.5 101.5t-116 40q-45 0 -88 -19.5t-75.5 -56.5t-52 -88t-19.5 -114v-289z" />
<glyph unicode="&#xff;" horiz-adv-x="925" d="M-14 850v37q45 0 76.5 -1t57 -2t48 -2t47.5 -1q27 0 49.5 1t49 2t58 2t74.5 1v-37q-37 0 -68.5 -11.5t-31.5 -62.5q0 -10 5 -25.5t9 -27.5l191 -449l184 431q6 16 11.5 34.5t5.5 30.5q0 47 -27 62.5t-72 17.5v37q31 0 50.5 -1t35 -1t29.5 -1t31 -1q33 0 59.5 2t81.5 2 v-37q-55 -2 -88 -40t-64 -110l-454 -1050q-12 -29 -28.5 -64t-38 -65.5t-48 -51t-59.5 -20.5q-23 0 -42.5 15.5t-19.5 43.5q0 23 12.5 38.5t29 25.5t36 17.5t35.5 11.5t45 35.5t57 95.5l121 276l-284 662q-35 80 -69 130t-95 50zM213 1227q0 49 35 85t84 36t85 -36t36 -85 t-36 -84t-85 -35t-84 35t-35 84zM561 1227q0 49 35 85t84 36t85 -36t36 -85t-36 -84t-85 -35t-84 35t-35 84z" />
<glyph unicode="&#x152;" horiz-adv-x="2088" d="M92 680q0 156 59.5 284t163 220t242.5 142t297 50q78 0 159 -6t171 -6q35 0 85 2t109.5 4t123 4t124.5 2q80 0 148.5 -2t150.5 -4l12 -305h-36q-6 78 -32 128t-69 78.5t-101.5 39t-129.5 10.5q-35 0 -81 -3t-75 -7q-47 -6 -47 -56v-516h119q92 0 132 47.5t40 131.5h37 q0 -47 -1 -80t-2 -56.5t-2 -40t-1 -32.5t1 -31.5t2 -38.5t2 -54.5t1 -78.5h-37q0 80 -40 127t-132 47h-119v-412q0 -74 11.5 -118t41 -65.5t81.5 -27.5t134 -6q74 0 136.5 9.5t110.5 38t79 83t39 144.5h39l-17 -326q-92 -2 -167.5 -3t-159.5 -1q-174 0 -306.5 4t-197.5 4 q-88 0 -176 -13.5t-185 -13.5q-174 0 -311 46.5t-231 135.5t-144.5 220t-50.5 301zM410 676q0 -100 12 -213t57 -208t129 -157.5t230 -62.5q76 0 122 19.5t71.5 56t34.5 92t9 127.5v659q0 51 -2 98.5t-12 86t-32.5 69.5t-63.5 53q-48 25 -111 25q-115 0 -198 -49t-138 -135 t-81.5 -204t-26.5 -257z" />
<glyph unicode="&#x153;" horiz-adv-x="1736" d="M82 442q0 106 39 192.5t105.5 148t155.5 94t189 32.5q106 0 200.5 -41t162.5 -112q63 70 150 110.5t192 40.5q72 0 139.5 -23.5t119.5 -67.5t86 -105.5t40 -135.5q0 -12 -1 -22t-11 -10h-611q-4 -29 -5 -55.5t-1 -55.5q0 -84 19.5 -155.5t56.5 -125t90 -83t121 -29.5 q55 0 98 14.5t77 33.5t58.5 43t42.5 42l23 -20q-25 -31 -58.5 -62t-76.5 -55.5t-97.5 -41t-119.5 -16.5q-96 0 -185.5 36t-156.5 106q-66 -70 -156 -108t-197 -38q-102 0 -191 36t-154.5 98.5t-104.5 148.5t-39 186zM328 442q0 -86 13 -162.5t42 -135t75 -92.5t113 -34 q66 0 112 34t74.5 92.5t42 136t13.5 163.5t-13.5 162t-42 133.5t-74.5 90t-112 32.5q-68 0 -113.5 -32.5t-74.5 -90t-42 -134.5t-13 -163zM1044 592h371q33 0 33 33q0 39 -9 81t-29.5 76.5t-54.5 57t-83 22.5q-61 0 -101.5 -26.5t-66 -66.5t-38.5 -87t-22 -90z" />
<glyph unicode="&#x178;" horiz-adv-x="1370" d="M10 1333v37q51 0 91 -1t75 -3t67.5 -3t67.5 -1q33 0 62.5 1t63.5 3t74 3t95 1v-37q-18 0 -37.5 -2t-37 -10t-27.5 -22.5t-10 -41.5t9 -50t25 -54l254 -483l293 479q16 25 25.5 49.5t9.5 44.5q0 53 -34 71.5t-87 18.5v37q43 0 73 -1t51.5 -2t38.5 -2t36 -1q18 0 32.5 1 t32 2t42 2t65.5 1v-37q-39 0 -66.5 -11t-50 -30.5t-42 -46t-38.5 -59.5l-336 -557v-459q0 -43 13.5 -68.5t36 -40t52 -19.5t62.5 -5v-37q-61 0 -102 1t-72 3t-58.5 3t-60.5 1q-35 0 -66.5 -1t-68.5 -3t-83 -3t-107 -1v37q33 0 62.5 5t52 19.5t36 40t13.5 68.5v414l-320 581 q-27 47 -47 78t-42 50.5t-49.5 27.5t-68.5 12zM457 1659q0 51 36 88t85 37q51 0 88 -37t37 -88q0 -49 -37 -85t-88 -36q-49 0 -85 36t-36 85zM821 1659q0 51 36 88t87 37t87 -37t36 -88q0 -49 -35.5 -85t-87.5 -36q-51 0 -87 36t-36 85z" />
<glyph unicode="&#x2c6;" horiz-adv-x="835" d="M133 1061l264 346h70l215 -346h-45l-205 186l-256 -186h-43z" />
<glyph unicode="&#x2dc;" horiz-adv-x="825" d="M123 1126q18 86 61 145.5t119 59.5q39 0 77 -15.5t73.5 -32.5t69.5 -32.5t65 -15.5q23 0 43 17.5t33 70.5h38q-6 -43 -19 -81t-34.5 -66.5t-50.5 -46t-66 -17.5q-41 0 -79.5 15.5t-74.5 35t-69 34.5t-59 15q-41 0 -59.5 -24.5t-28.5 -61.5h-39z" />
<glyph unicode="&#x2000;" horiz-adv-x="918" />
<glyph unicode="&#x2001;" horiz-adv-x="1837" />
<glyph unicode="&#x2002;" horiz-adv-x="918" />
<glyph unicode="&#x2003;" horiz-adv-x="1837" />
<glyph unicode="&#x2004;" horiz-adv-x="612" />
<glyph unicode="&#x2005;" horiz-adv-x="459" />
<glyph unicode="&#x2006;" horiz-adv-x="306" />
<glyph unicode="&#x2007;" horiz-adv-x="306" />
<glyph unicode="&#x2008;" horiz-adv-x="229" />
<glyph unicode="&#x2009;" horiz-adv-x="367" />
<glyph unicode="&#x200a;" horiz-adv-x="102" />
<glyph unicode="&#x2010;" horiz-adv-x="587" d="M82 473v121h424v-121h-424z" />
<glyph unicode="&#x2011;" horiz-adv-x="587" d="M82 473v121h424v-121h-424z" />
<glyph unicode="&#x2012;" horiz-adv-x="587" d="M82 473v121h424v-121h-424z" />
<glyph unicode="&#x2013;" horiz-adv-x="1355" d="M205 487v88h946v-88h-946z" />
<glyph unicode="&#x2014;" horiz-adv-x="1665" d="M164 487v88h1337v-88h-1337z" />
<glyph unicode="&#x2018;" horiz-adv-x="561" d="M143 1042q0 51 18.5 95.5t49.5 83.5t71 71.5t85 59.5l22 -31q-92 -63 -121.5 -119.5t-29.5 -103.5v-25q0 -8 2 -14q16 14 34.5 18t32.5 4q45 0 78 -29.5t33 -76.5q0 -55 -37 -88t-82 -33q-27 0 -54.5 11.5t-50 35t-37 58t-14.5 83.5z" />
<glyph unicode="&#x2019;" horiz-adv-x="561" d="M143 1225q0 55 37 88t82 33q27 0 54.5 -11.5t50 -35t37 -58.5t14.5 -84q0 -51 -18.5 -95t-49.5 -83t-70.5 -72t-84.5 -59l-23 31q92 63 122 119.5t30 103.5q0 4 -1 11t-1 13v15q-16 -14 -35 -18.5t-33 -4.5q-45 0 -78 30t-33 77z" />
<glyph unicode="&#x201a;" horiz-adv-x="561" d="M143 86q0 55 37 88t82 33q27 0 54.5 -11.5t50 -35t37 -58t14.5 -84.5q0 -51 -18.5 -95t-49.5 -83t-70.5 -71.5t-84.5 -59.5l-23 31q92 63 122 119.5t30 103.5q0 4 -1 11.5t-1 13.5v14q-16 -14 -35 -18t-33 -4q-45 0 -78 29.5t-33 76.5z" />
<glyph unicode="&#x201c;" horiz-adv-x="929" d="M143 1040q0 51 18.5 95.5t49.5 83t71 71.5t85 60l22 -31q-92 -63 -121.5 -119.5t-29.5 -103.5v-25q0 -8 2 -14q16 14 34.5 18t32.5 4q45 0 78 -29.5t33 -76.5q0 -55 -37 -88t-82 -33q-27 0 -54.5 11t-50 35t-37 58.5t-14.5 83.5zM512 1040q0 51 18.5 95.5t49 83 t70.5 71.5t85 60l23 -31q-92 -63 -122 -119.5t-30 -103.5v-25q0 -8 2 -14q16 14 35 18t33 4q45 0 77.5 -29.5t32.5 -76.5q0 -55 -36.5 -88t-81.5 -33q-27 0 -54.5 11t-50 35t-37 58.5t-14.5 83.5z" />
<glyph unicode="&#x201d;" horiz-adv-x="929" d="M143 1223q0 55 37 87.5t82 32.5q27 0 54.5 -11t50 -34.5t37 -58.5t14.5 -84q0 -51 -18.5 -95t-49.5 -83t-70.5 -72t-84.5 -59l-23 31q92 63 122 119.5t30 103.5q0 4 -1 11t-1 13v15q-16 -14 -35 -18.5t-33 -4.5q-45 0 -78 30t-33 77zM512 1223q0 55 37 87.5t82 32.5 q27 0 54.5 -11t50 -34.5t36.5 -58.5t14 -84q0 -51 -18 -95t-49 -83t-71 -72t-85 -59l-22 31q92 63 121.5 119.5t29.5 103.5q0 4 -1 11t-1 13v15q-16 -14 -34.5 -18.5t-32.5 -4.5q-45 0 -78 30t-33 77z" />
<glyph unicode="&#x201e;" horiz-adv-x="931" d="M143 86q0 55 37 88t82 33q27 0 54.5 -11.5t50 -35t37 -58t14.5 -84.5q0 -51 -18.5 -95t-49.5 -83t-70.5 -71.5t-84.5 -59.5l-23 31q92 63 122 119.5t30 103.5q0 4 -1 11.5t-1 13.5v14q-16 -14 -35 -18t-33 -4q-45 0 -78 29.5t-33 76.5zM514 86q0 55 37 88t82 33 q27 0 54.5 -11.5t50 -35t36.5 -58t14 -84.5q0 -51 -18 -95t-49 -83t-71 -71.5t-85 -59.5l-22 31q92 63 121.5 119.5t29.5 103.5q0 4 -1 11.5t-1 13.5v14q-16 -14 -34.5 -18t-32.5 -4q-45 0 -78 29.5t-33 76.5z" />
<glyph unicode="&#x2022;" horiz-adv-x="804" d="M205 586q0 41 15.5 76.5t42 62.5t61 42t75.5 15q43 0 79 -15t63.5 -42t43 -62.5t15.5 -76.5t-15.5 -76t-43 -62.5t-63.5 -43t-79 -15.5q-41 0 -75.5 15.5t-61 43t-42 62.5t-15.5 76z" />
<glyph unicode="&#x2026;" horiz-adv-x="1622" d="M143 102q0 53 37 90t86 37q53 0 90 -36.5t37 -90.5q0 -51 -37 -86.5t-90 -35.5q-49 0 -86 35.5t-37 86.5zM686 102q0 53 37 90t86 37q53 0 90 -36.5t37 -90.5q0 -51 -37 -86.5t-90 -35.5q-49 0 -86 35.5t-37 86.5zM1229 102q0 53 37 90t86 37q53 0 90 -36.5t37 -90.5 q0 -51 -37 -86.5t-90 -35.5q-49 0 -86 35.5t-37 86.5z" />
<glyph unicode="&#x202f;" horiz-adv-x="367" />
<glyph unicode="&#x2039;" horiz-adv-x="647" d="M123 461q23 18 69 51t98 74t102 85t83 81q10 10 17.5 13t13.5 3q18 0 18 -23q0 -18 -17.5 -45.5t-41 -58.5t-49 -59.5t-41.5 -49.5l-60 -71l60 -72q16 -20 41.5 -49t49 -59.5t41 -59t17.5 -47.5q0 -20 -20 -20q-4 0 -11.5 3t-17.5 13q-33 39 -84 83t-104.5 85t-98.5 73.5 t-65 49.5z" />
<glyph unicode="&#x203a;" horiz-adv-x="647" d="M123 174q0 18 17.5 47t41 59.5t49 59.5t41.5 49l60 72l-60 71q-16 20 -41.5 49t-49 60t-41 58.5t-17.5 45.5q0 23 18 23q6 0 13.5 -3t17.5 -13q33 -37 83 -81t102.5 -85t98.5 -74t68 -51q-20 -16 -65 -49t-98.5 -74t-104.5 -85t-84 -83q-10 -10 -17.5 -13t-11.5 -3 q-20 0 -20 20z" />
<glyph unicode="&#x205f;" horiz-adv-x="459" />
<glyph unicode="&#x20ac;" horiz-adv-x="1243" d="M76 729l24 59h82q20 129 72.5 241t131.5 193t180.5 127t221.5 46q80 0 153 -30t140 -97l29 73h37q0 -55 -1 -100t-1 -76q0 -39 3 -92t3 -106h-43q-4 72 -26.5 139.5t-62.5 119.5t-95.5 83.5t-122.5 31.5q-135 0 -217 -148.5t-103 -404.5h533l-25 -59h-512v-108h465 l-27 -60h-438q8 -152 34 -254t68 -163.5t98 -88t124 -26.5q55 0 109.5 25.5t99.5 78.5t75.5 136t40.5 198h43q0 -76 -3 -134.5t-3 -96.5q0 -20 1 -48t2 -57t2 -57.5t1 -50.5h-36l-41 92q-12 -16 -40 -41t-69 -47.5t-95 -40t-120 -17.5q-248 0 -399.5 149.5t-186.5 442.5 h-100l24 60h72q-2 8 -2 16v41v39q0 8 2 12h-102z" />
<glyph unicode="&#x2122;" horiz-adv-x="2095" d="M61 1149v217q16 0 46 1t47 1q78 0 150.5 -2t148.5 -2q72 0 140.5 2t139.5 2h54.5t54.5 -2v-217h-37q-10 80 -42 124t-122 44q-25 0 -42 -2t-29.5 -11.5t-17.5 -30t-5 -56.5v-529q0 -59 27.5 -82.5t99.5 -23.5v-39q-47 0 -78 1t-54.5 1t-44 1t-46.5 1q-25 0 -46.5 -1 t-45 -1t-55.5 -1t-77 -1v39q72 0 100.5 23.5t28.5 82.5v531q0 37 -3 56t-12 28.5t-25.5 11.5t-43.5 2q-49 0 -80.5 -8.5t-50 -27.5t-28 -52t-15.5 -80h-37zM901 1329v39q37 0 63.5 -1t47 -1t38 -1t35.5 -1q35 0 66 2t78 2l250 -580l231 580q51 0 82 -2t66 -2t68.5 2t107.5 2 v-39q-29 0 -51.5 -2t-40 -12t-26.5 -30.5t-9 -59.5v-533q0 -70 30.5 -89t96.5 -21v-39q-47 0 -76 1t-50.5 1t-40 1t-42.5 1q-27 0 -49.5 -1t-49 -1t-59.5 -1t-78 -1v39q68 0 98.5 20.5t30.5 89.5v557l-282 -706h-56l-297 696v-547q0 -68 32 -88t95 -22v-39q-31 0 -51 1 t-35.5 1t-30 1t-32.5 1t-32.5 -1t-31 -1t-39 -1t-55.5 -1v39q66 0 96.5 21.5t30.5 88.5v533q0 68 -29.5 86t-99.5 18z" />
<glyph unicode="&#x25fc;" horiz-adv-x="890" d="M0 0v891h891v-891h-891z" />
</font>
</defs>
</svg>
